<?xml version="1.0" standalone="no"?>
<!DOCTYPE svg PUBLIC "-//W3C//DTD SVG 1.1//EN" "http://www.w3.org/Graphics/SVG/1.1/DTD/svg11.dtd" >
<svg xmlns="http://www.w3.org/2000/svg">
<metadata>Generated by IcoMoon</metadata>
<defs>
<font id="icomoon" horiz-adv-x="1024">
<font-face units-per-em="1024" ascent="960" descent="-64" />
<missing-glyph horiz-adv-x="1024" />
<glyph unicode="&#x20;" horiz-adv-x="512" d="" />
<glyph unicode="&#xe900;" glyph-name="youtube" d="M781.899 730.449h-539.795c-76.249 0-138.087-61.838-138.087-138.087v-288.728c0-76.249 61.838-138.087 138.087-138.087h539.795c76.249 0 138.087 61.838 138.087 138.087v288.728c0 76.249-61.838 138.087-138.087 138.087zM546.52 385.235l-122.394-62.765v251.067l244.792-125.536z" />
<glyph unicode="&#xe901;" glyph-name="alarm" d="M852.114 224.914h-702.171l-95.086-98.743v-29.257l29.257-32.914h288.914c0-70.692 57.308-128 128-128s128 57.308 128 128v0h288.914l32.914 32.914v29.257zM822.857 480.914c-1.134 130.386-79.63 242.163-191.772 291.76l-2.057 0.812v58.514c0 70.692-57.308 128-128 128s-128-57.308-128-128v0-58.514c-112.92-50.522-190.174-161.884-190.174-291.29 0-0.451 0.001-0.901 0.003-1.351v0.070-226.743h640zM438.857 832c-0.078 1.13-0.122 2.45-0.122 3.779 0 32.317 26.198 58.514 58.514 58.514 1.33 0 2.649-0.044 3.957-0.132l-0.177 0.009c1.093 0.069 2.371 0.108 3.657 0.108 34.336 0 62.171-27.835 62.171-62.171 0-0.038 0-0.076 0-0.114v0.006z" />
<glyph unicode="&#xe902;" glyph-name="basket" d="M763.2 566.72l-205.12 307.84c-9.461 10.305-22.539 17.159-37.208 18.542l-0.232 0.018c-0.722 0.044-1.566 0.069-2.415 0.069-14.52 0-27.328-7.326-34.931-18.483l-0.094-0.146-204.8-307.84h-224c-0.789 0.051-1.711 0.080-2.64 0.080-24.212 0-43.84-19.628-43.84-43.84 0-0.929 0.029-1.85 0.086-2.765l-0.006 0.125v-14.080l116.48-433.28c11.322-39.569 46.396-68.347 88.45-70.074l0.19-0.006h606.080c0.278-0.003 0.606-0.005 0.935-0.005 42.63 0 78.331 29.665 87.586 69.478l0.119 0.607 116.16 433.28v14.080c0.051 0.795 0.081 1.724 0.081 2.66 0 24.212-19.628 43.84-43.84 43.84-1.042 0-2.075-0.036-3.099-0.108l0.138 0.008zM379.2 566.72l140.16 205.44 139.84-205.44z" />
<glyph unicode="&#xe903;" glyph-name="bin" d="M182.857-64h640l62.171 702.171h-768zM629.029 832v128h-256v-128h-318.171v-193.829l62.171 65.829h768l65.829-65.829v193.829zM566.857 832h-128v62.171h128z" />
<glyph unicode="&#xe904;" glyph-name="pause" horiz-adv-x="704" d="M0 960h256v-1024h-256zM448 960h256v-1024h-256z" />
<glyph unicode="&#xe905;" glyph-name="book" d="M885.029 832v-833.829h-672.914c-45.803 9.176-79.828 49.072-79.828 96.914s34.025 87.738 79.197 96.809l0.631 0.106h610.743v768h-640c-70.692 0-128-57.308-128-128v0-768c0-70.692 57.308-128 128-128v0h768v896zM245.029 126.171h577.829v-62.171h-577.829z" />
<glyph unicode="&#xe906;" glyph-name="bubble" d="M512 923.429c281.6 0 512-186.514 512-416.914s-230.4-413.257-512-413.257h-80.457c-109.714-109.714-241.371-128-365.714-131.657v25.6c65.829 32.914 128 95.086 128 164.571 0 10.971-3.657 18.286-3.657 29.257-111.908 67.847-186.442 187.566-190.16 324.957l-0.011 0.529c0 230.4 230.4 416.914 512 416.914z" />
<glyph unicode="&#xe907;" glyph-name="calendar" d="M354.743 576h128v-128h-128zM548.571 576h128v-128h-128zM738.743 576h128v-128h-128zM164.571 192h128v-128h-128zM354.743 192h128v-128h-128zM548.571 192h128v-128h-128zM354.743 382.171h128v-128h-128zM548.571 382.171h128v-128h-128zM738.743 382.171h128v-128h-128zM164.571 382.171h128v-128h-128zM866.743 960v-65.829h-128v65.829h-446.171v-65.829h-128v65.829h-128v-1024h958.171v1024zM932.571-1.829h-833.829v705.829h833.829z" />
<glyph unicode="&#xe908;" glyph-name="camera" d="M512 543.086c-84.831 0-153.6-68.769-153.6-153.6s68.769-153.6 153.6-153.6c84.831 0 153.6 68.769 153.6 153.6v0c0 84.831-68.769 153.6-153.6 153.6v0zM921.6 696.686h-124.343c-17.663 2.893-32.268 13.879-40.085 28.952l-0.144 0.305-29.257 95.086c-7.961 15.378-22.566 26.364-39.911 29.214l-0.318 0.043h-351.086c-17.663-2.893-32.268-13.879-40.085-28.952l-0.144-0.305-29.257-95.086c-7.961-15.378-22.566-26.364-39.911-29.214l-0.318-0.043h-124.343c-55.752-1.951-100.449-46.648-102.395-102.218l-0.005-0.182v-460.8c1.951-55.752 46.648-100.449 102.218-102.395l0.182-0.005h819.2c55.752 1.951 100.449 46.648 102.395 102.218l0.005 0.182v460.8c-1.951 55.752-46.648 100.449-102.218 102.395l-0.182 0.005zM512 133.486c-141.385 0-256 114.615-256 256s114.615 256 256 256c141.385 0 256-114.615 256-256v0c0-141.385-114.615-256-256-256v0zM885.029 521.143c-19.453 1.751-34.82 17.119-36.56 36.416l-0.011 0.155c0 20.198 16.374 36.571 36.571 36.571v0c1.167 0.147 2.517 0.23 3.888 0.23 18.178 0 32.914-14.736 32.914-32.914 0-1.37-0.084-2.721-0.246-4.047l0.016 0.159c0-20.198-16.374-36.571-36.571-36.571v0z" />
<glyph unicode="&#xe909;" glyph-name="cart" d="M171.886 49.371c0-62.613 50.758-113.371 113.371-113.371s113.371 50.758 113.371 113.371c0 62.613-50.758 113.371-113.371 113.371v0c-62.613 0-113.371-50.758-113.371-113.371v0zM738.743 49.371c0-62.613 50.758-113.371 113.371-113.371v0c62.613 0 113.371 50.758 113.371 113.371s-50.758 113.371-113.371 113.371v0c-62.613 0-113.371-50.758-113.371-113.371v0zM373.029 320l629.029 179.2c12.358 4.439 21.183 15.727 21.939 29.171l0.004 0.086v310.857h-800.914v98.743c-1.851 12.478-12.489 21.944-25.338 21.944-0.092 0-0.184 0-0.276-0.001h-175.529c-12.119 0-21.943-9.824-21.943-21.943v0-91.429h109.714l113.371-515.657 10.971-54.857v-84.114c0-12.119 9.824-21.943 21.943-21.943v0h746.057c12.119 0 21.943 9.824 21.943 21.943v0 84.114h-640c-65.829 0-65.829 25.6-10.971 43.886z" />
<glyph unicode="&#xe90a;" glyph-name="chat" d="M296.229 330.971v318.171h-193.829c-55.752-1.951-100.449-46.648-102.395-102.218l-0.005-0.182v-307.2c1.951-55.752 46.648-100.449 102.218-102.395l0.182-0.005h51.2v-153.6l153.6 153.6h256c55.752 1.951 100.449 46.648 102.395 102.218l0.005 0.182v91.429h-369.371zM921.6 905.143h-460.8c-55.752-1.951-100.449-46.648-102.395-102.218l-0.005-0.182v-409.6h358.4l153.6-153.6v153.6h51.2c55.752 1.951 100.449 46.648 102.395 102.218l0.005 0.182v307.2c-1.951 55.752-46.648 100.449-102.218 102.395l-0.182 0.005z" />
<glyph unicode="&#xe90b;" glyph-name="clock" d="M512 960c-282.77 0-512-229.23-512-512s229.23-512 512-512c282.77 0 512 229.23 512 512v0c0 282.77-229.23 512-512 512v0zM512 64c-212.077 0-384 171.923-384 384s171.923 384 384 384c212.077 0 384-171.923 384-384v0c0-212.077-171.923-384-384-384v0zM735.086 510.171h-157.257v226.743c0.001 0.068 0.001 0.149 0.001 0.23 0 16.158-13.099 29.257-29.257 29.257-1.29 0-2.56-0.083-3.805-0.245l0.147 0.016h-65.829c-1.192 0.197-2.566 0.309-3.966 0.309-14.138 0-25.6-11.462-25.6-25.6 0-1.4 0.112-2.774 0.329-4.113l-0.020 0.147v-321.829c-0.146-1.098-0.23-2.369-0.23-3.658 0-16.158 13.099-29.257 29.257-29.257 0.081 0 0.161 0 0.242 0.001h255.988c18.178 0 32.914 14.736 32.914 32.914v65.829c0.001 0.068 0.001 0.149 0.001 0.23 0 16.158-13.099 29.257-29.257 29.257-1.29 0-2.56-0.083-3.805-0.245l0.147 0.016z" />
<glyph unicode="&#xe90c;" glyph-name="cloud" d="M1024 338.286c0.002 0.331 0.004 0.724 0.004 1.116 0 80.655-55.551 148.334-130.48 166.866l-1.181 0.247c-4.016 128.895-108.497 232.098-237.527 234.055l-0.188 0.002c-0.813 0.010-1.772 0.016-2.733 0.016-74.803 0-141.28-35.648-183.37-90.882l-0.411-0.563c-25.004 31.313-63.176 51.2-105.994 51.2-0.022 0-0.044 0-0.067 0h0.003c-1.089 0.032-2.371 0.051-3.657 0.051-72.712 0-131.657-58.945-131.657-131.657 0-0.018 0-0.036 0-0.054v0.003-21.943h-32.914c-0.010 0-0.022 0-0.035 0-105.763 0-191.741-84.708-193.791-189.98l-0.003-0.192c0-107.049 86.78-193.829 193.829-193.829v0h654.629c96.95 0 175.543 78.593 175.543 175.543v0z" />
<glyph unicode="&#xe90d;" glyph-name="cog" d="M932.571 349.257c-15.76 27.726-25.050 60.909-25.050 96.263 0 72.489 39.055 135.855 97.272 170.206l0.921 0.503-98.743 175.543c-27.891-18.259-62.034-29.159-98.717-29.257h-0.026c-0.010 0-0.022 0-0.035 0-107.049 0-193.829 86.78-193.829 193.829 0 1.286 0.013 2.569 0.037 3.849l-0.003-0.192h-201.143c-1.28-36.644-11.993-70.535-29.768-99.643l0.511 0.9c-34.154-58.273-96.473-96.786-167.786-96.786-36.608 0-70.847 10.149-100.054 27.787l0.869-0.487-98.743-175.543c30.466-16.521 55.225-40.108 72.669-68.652l0.474-0.834c14.99-27.467 23.805-60.164 23.805-94.92 0-72.579-38.44-136.179-96.072-171.552l-0.875-0.5 102.4-175.543c24.671 16.166 54.897 25.785 87.37 25.785 2.714 0 5.412-0.067 8.093-0.2l-0.377 0.015c107.049 0 193.829-86.78 193.829-193.829v0h201.143c1.28 36.644 11.993 70.535 29.768 99.643l-0.511-0.9c33.294 58.066 94.918 96.551 165.531 96.551 36.11 0 69.87-10.064 98.626-27.541l-0.843 0.476 102.4 175.543c-30.466 16.521-55.225 40.108-72.669 68.652l-0.474 0.834zM512 239.543c-115.128 0-208.457 93.329-208.457 208.457s93.329 208.457 208.457 208.457c115.128 0 208.457-93.329 208.457-208.457v0c-2.016-114.307-94.149-206.441-208.266-208.454l-0.191-0.003z" />
<glyph unicode="&#xe90e;" glyph-name="blob" d="M580.903 959.974h42.645c3.403-1.265 6.747-2.801 10.239-3.705 4.487-1.175 8.071-5.722 13.462-3.343h0.331c4.819-1.325 9.637-2.71 14.456-3.975 4.277-1.145 8.553-2.258 12.799-3.464 3.553-0.993 7.108-1.958 10.571-3.223 4.457-1.597 9.065-3.102 13.071-5.481 3.614-2.169 9.035-0.602 11.263-5.331 0.061-0.181 0.602-0.181 0.904-0.211 4.186-1.084 8.433-2.018 12.529-3.313 2.169-0.663 4.186-1.566 5.18-4.216 0.632-1.656 2.771-3.223 4.578-3.915 4.066-1.506 7.649-3.524 10.661-6.626 0.602-0.602 1.988-0.422 3.072-0.693-0.302 1.386-0.512 2.169-0.904 3.764 3.102-1.988 5.059-4.337 8.312-3.825 0.361 0 0.843-0.271 1.145-0.542l11.776-10.541c-0.542-0.12-0.211 0.030 0.091 0 0.904-0.12 1.777-0.302 2.651-0.482l-0.181-0.783-2.108-0.422-0.572-0.904 4.337-3.102c0.542-2.771 2.169-3.855 6.023-3.464 0.391 0.030 0.843-0.452 1.265-0.663 0.813-0.422 1.626-1.054 2.499-1.175 4.005-0.693 8.282-0.361 11.866-2.831 0.241-0.211 0.602-0.391 0.904-0.302 5.27 1.356 9.276-2.349 13.944-3.464 2.44-0.602 4.518-2.56 6.836-3.915 1.867 2.169 3.072 2.018 4.638-0.422 0.512-0.783 1.597-1.204 2.469-1.686 2.229-1.175 5.3-1.747 6.506-3.524 2.349-3.464 6.204-4.216 9.336-5.421 2.53-1.054 1.506-1.958 1.958-2.831 1.415-0.843 2.469-1.958 3.614-2.981 0.783-0.693 1.747-1.807 2.56-1.777 2.62 0.211 3.403-1.686 4.457-3.253 2.469 1.356 5.331 0.482 8.162-2.349-2.319-4.126 2.771-3.975 3.223-6.324 3.825 1.747 10.541-0.963 11.866-4.035l-3.042-3.705c1.837 0.15 2.921 0.542 3.735 0.211 2.921-1.115 5.752-2.41 8.553-3.794 0.873-0.452 1.506-1.386 2.229-2.108 1.084-1.024 2.108-2.138 3.253-3.042 1.626-1.325 3.825-2.199 3.313-4.457-1.506-0.452-2.62-0.783-3.764-1.175 2.71-1.325 5.813-1.356 7.649-2.831 3.705-3.072 6.747-6.867 9.998-10.42 2.138-2.349 3.794-5.361 6.354-7.047 1.897-1.265 2.59-1.897 1.506-3.764-1.204-2.078-0.091-3.403 1.597-4.216 3.915-1.988 7.59-4.035 7.921-8.975 0.030-0.482 0.452-0.934 0.752-1.356 2.018-2.801 4.156-5.481 6.023-8.342 0.663-0.993 0.783-2.319 1.145-3.464 0.331-1.084 0.391-2.319 1.054-3.192 1.747-2.258 4.337-4.126 5.572-6.626 2.499-5.18 4.035-10.782 6.506-15.961 3.674-7.59 7.951-14.907 11.685-22.467 2.892-5.843 5.3-11.956 8.041-17.949 1.476-3.223 3.403-6.324 4.698-9.637 2.169-5.602 4.066-11.293 5.963-17.016 0.663-1.927 0.752-4.126 1.506-6.023 1.295-3.433 2.921-6.686 4.337-10.059 0.241-0.542 0-1.265 0.091-1.897 0.181-2.289 0.331-4.607 0.723-6.836 0.12-0.873 1.115-1.656 1.175-2.469 0.452-5.3 1.566-10.27 3.915-15.148 3.313-6.836 6.143-13.884 8.553-20.991 2.59-7.68 4.518-15.57 6.626-23.371 1.145-4.337 2.108-8.734 3.012-13.040 0.302-1.445 0.271-2.951 0.391-4.397l-0.783-0.12 1.386-1.656c-0.752-1.204-1.626-2.047-1.807-3.042-0.302-1.415-0.091-2.892-0.091-5.089 2.62-3.162 3.313-10.541 1.024-12.499 0-2.44-0.15-4.578 0.061-6.686 0.181-1.747 1.054-3.433 1.175-5.18 0.361-5.541 0.061-11.113 0.904-16.564 0.783-5.030 2.53-9.939 4.186-14.818 1.145-3.313 3.825-6.415 4.066-9.698s3.102-5.632 1.988-9.457c-0.783-2.651 1.084-6.023 1.506-9.035 0.602-4.186 1.115-8.372 1.325-12.558 0.302-6.385 1.988-12.619 1.897-18.973-0.061-2.349 0.663-4.578-0.904-7.258-2.108-3.614-0.452-8.101 0.422-12.137 0.482-2.169 1.897-4.186 0.391-5.873l2.349-5.933h0.482v-0.632c-5.692-1.235-1.506-4.005-1.476-6.324-0.211-0.030-0.904-0.15-1.445-0.302l1.717-5.632-4.607-2.831c2.349-1.927 2.018-4.126 0.482-6.084-0.993-1.295-0.934-2.169 0.211-3.162 1.506-1.265 1.204-2.349-0.181-3.614-0.752-0.663-1.656-2.379-1.386-2.71 2.651-3.132 1.265-5.602-0.452-7.379 0.572-1.356 1.295-2.258 1.265-3.192-0.15-2.469-0.813-4.909-0.904-7.408-0.061-2.56 0.331-5.12-2.047-7.168-0.723-0.602-0.361-2.41-0.512-3.735l-4.216-1.656c1.204-0.452 1.686-0.663 2.169-0.783 0.904-0.211 1.867-0.331 2.771-0.452l-2.56-1.506-1.386-0.993c0.422-0.813 0.693-1.597 1.204-2.258 2.199-2.921 2.047-3.885-1.295-5.813l2.229-4.969-2.62-1.445c-0.271-2.56-0.602-4.759-0.663-6.927 0-1.084 0.843-2.108 0.813-3.192 0-0.813-0.873-2.41-1.204-2.349-3.524 0.241-2.44-1.325-1.656-3.132 0.361-0.843 0.061-1.988 0.061-2.981-2.59 0.030-1.295-2.078-1.656-3.132-0.422-1.204-0.211-2.56-0.302-4.397l0.873-0.602c-0.391-1.024-1.084-1.958-0.993-2.71 0.331-2.53 0.452-4.698-3.644-4.367 1.626-2.499 1.506-4.578 0.422-6.836-2.258-4.909-4.186-9.939-6.324-14.878-0.813-1.897-2.981-3.975-2.59-5.452 0.963-3.764-2.41-4.668-3.644-6.897-0.542-0.993-2.349-2.078-2.138-2.59 1.054-2.831-1.386-4.126-2.319-6.084-0.602-1.235-2.169-2.469-2.018-3.494 0.482-3.614-2.319-5.3-3.915-7.71-0.663-0.934-1.777-2.108-1.626-2.951 0.542-2.981-1.506-3.403-3.494-4.005 0.993-3.975-0.934-7.108-5.059-8.914-0.602-1.415-1.386-2.74-2.349-3.915-1.204-1.506-2.71-2.861-3.674-4.487-0.542-0.873-0.030-2.319-0.422-3.313-0.813-2.289-1.626-4.607-2.921-6.626-1.927-2.892-1.084-7.649-5.963-8.433 0.963-3.705 0.934-5.361-1.747-7.138-2.258-1.536-1.958-2.951-1.204-4.728-1.415-1.777-5.241-1.897-3.553-5.361 0.061-0.12-0.091-0.452-0.241-0.572-2.169-1.626-2.078-5.089-5.12-6.084-0.361-0.12-0.512-1.024-0.693-1.597-0.512-1.356-0.632-3.012-1.506-4.096-2.62-3.162-3.403-7.258-6.656-10.36-3.012-2.892-3.433-7.981-6.716-11.263-1.656-1.656-3.192-3.674-4.156-5.782-1.295-2.861-3.253-4.607-6.234-5.572-1.145-0.391-2.831-1.054-1.204-2.861 0.211-0.211 0.211-0.904 0.030-1.204-1.927-2.921-4.035-5.782-5.873-8.734-1.415-2.289-4.427-4.307-1.686-7.71 0.361-0.452-0.904-2.499-1.867-3.373-0.572-0.542-1.958-0.241-3.464-0.361 2.289-3.012 1.807-5-0.15-6.747-2.289-2.018-4.819-3.764-7.077-5.813-3.343-3.012-6.385-6.445-9.878-9.306-4.246-3.494-8.794-6.626-13.312-9.818-3.223-2.319-6.415-4.759-9.968-6.415-4.156-1.927-5.602-6.385-9.637-8.493-3.735-1.958-6.806-5.12-10.179-7.74-1.867-1.445-3.975-2.56-5.602-4.216-2.138-2.108-3.735-4.487-6.927-5.752-2.651-1.084-4.518-3.855-6.927-5.722-3.524-2.68-7.981-3.584-11.384-7.108-3.794-3.915-9.276-6.324-14.035-9.396-7.408-4.879-14.667-9.998-22.286-14.546-4.005-2.41-8.734-3.614-12.258-6.897-1.536-1.506-3.825-2.229-5.843-3.162-4.156-1.988-8.312-3.975-12.529-5.782-2.921-1.265-6.023-2.108-8.944-3.373-2.71-1.054-5.12-2.68-7.86-3.614-4.066-1.415-8.312-2.289-12.347-3.614-5.752-1.958-10.902-5.421-17.167-5.902-0.813-0.030-1.566-0.693-2.379-0.934-1.295-0.452-2.62-0.783-4.035-1.175l-0.181-0.904c-1.927-0.302-1.867-13.161-3.283-13.553-10.059-17.98-31.924-21.593-36.14-23.16-0.663-0.241-1.747 0.12-2.199-0.302-3.584-3.012-8.192-3.132-12.408-4.367-2.379-0.663-5.421-0.572-7.017-2.018-3.042-2.71-6.595-2.53-10.119-2.981-1.175-0.12-2.41-0.030-3.524-0.302-3.132-0.904-6.174-2.319-9.366-2.71-5.632-0.693-11.324-0.723-16.986-1.024l-21.383-1.084c-0.422 0-0.873-0.061-1.295-0.12-4.848-0.452-9.698-1.054-14.546-1.325-3.614-0.15-7.228 0.271-10.842 0.181-3.794-0.091-7.56-0.422-11.354-0.602-1.536-0.061-3.072-0.061-4.607 0-5.241 0.091-10.45 0.271-15.691 0.482-8.312 0.391-16.595 1.024-24.907 1.204-5.481 0.181-10.993-0.542-16.474-0.211-7.56 0.452-15.118 1.566-22.678 2.258-6.506 0.602-13.010 1.145-19.546 1.566-4.126 0.241-8.282 0.211-12.408 0.422-5.813 0.302-11.625 0.482-17.377 1.145-4.728 0.542-9.336 2.018-14.035 2.56-3.644 0.452-7.228 0.391-10.902 1.566-6.836 2.289-14.155 3.072-21.021 5.18-7.077 2.138-13.914 5.12-20.841 7.801-10.179 3.915-20.359 7.89-30.478 11.986-2.56 1.024-4.728 2.892-7.228 4.066-3.794 1.897-7.71 3.524-11.565 5.391-1.807 0.843-3.464 2.108-5.3 2.892-4.337 1.777-8.824 3.253-13.101 5.15-5.511 2.469-10.872 5.21-16.263 7.89-1.506 0.752-2.921 1.747-4.397 2.59-5.662 3.343-11.263 6.836-17.046 9.998-4.789 2.71-10.209 4.427-14.576 7.619-8.553 6.084-18.040 10.812-26.322 17.377-5.632 4.518-12.74 7.138-17.287 13.131-0.993 1.235-3.433 1.686-3.975 3.012-2.169 5.241-7.138 8.162-10.239 12.71-3.313 4.939-7.649 9.216-11.776 13.583-6.927 7.228-13.642 14.456-19.275 22.858-5.331 7.89-9.728 16.143-14.064 24.485-0.663 1.235-0.452 2.892-0.963 4.216-1.506 3.614-2.831 7.349-4.819 10.722-1.325 2.169-3.885 3.614-5.541 5.632-2.801 3.373-6.023 6.716-7.801 10.661-1.717 3.855-2.771 7.89-6.927 10.059-0.302 0.12-0.391 0.693-0.482 1.084-1.024 5-4.397 8.433-7.71 12.106-1.656 1.807-2.349 4.518-3.464 6.776-0.693 1.386-1.325 2.801-2.108 4.156-3.072 5.602-6.324 11.204-9.306 16.865-0.752 1.415-0.663 3.253-1.204 4.819-2.651 7.469-6.927 14.275-10.511 21.352-2.771 5.421-1.325 12.347-6.686 16.595l-0.181 0.241c-1.386 3.553-2.831 7.017-4.096 10.631-1.626 4.607-3.072 9.276-4.638 13.914-2.258 6.897-4.457 13.794-6.927 20.6-1.115 3.132-2.951 5.993-4.156 9.096-0.843 2.229-0.752 4.789-1.807 6.897-2.651 5.481-5.572 10.842-8.583 16.173-1.777 3.102-1.536 6.536-2.289 9.788-0.934 4.126-2.56 8.131-2.892 12.438-0.391 4.638-0.512 9.637-2.469 13.703-2.41 4.909-0.873 9.637-1.415 14.396-0.271 2.229-0.904 4.457-0.904 6.686 0.030 4.518 0.302 9.065 0.663 13.612 0.302 3.855 0.843 7.68 1.204 11.565 0.091 0.693-0.302 1.445-0.331 2.138-0.061 0.843 0 1.626 0.091 2.44 0.241 2.229 0.693 4.457 0.752 6.686 0.15 5.632 0.15 11.234 0.211 16.865l0.030 7.68c0.061 3.614 0.030 7.318 0.302 10.932 0.211 2.41 1.054 4.668 0 7.228-0.632 1.656-0.12 3.975 0.482 5.782 0.934 2.892 1.747 5.541 0.602 8.674-1.445 3.975 0.211 7.981 1.175 11.896 0.391 1.626 0.723 3.223 0.904 4.819 0.271 1.958 0.211 3.915 0.512 5.873 0.241 1.626 0.934 3.162 1.204 4.728 0.542 3.313 0.602 6.776 1.476 10.029 1.145 4.216 3.072 8.251 4.397 12.438 1.867 5.813 3.464 11.745 5.18 17.618 0.482 1.747 1.506 3.524-0.663 4.969-0.241 0.15-0.15 0.813-0.15 1.265l0.302 11.324c0 3.102-0.271 6.234 0.061 9.306 0.241 2.229 1.807 4.367 1.777 6.506-0.091 4.307 1.566 8.192 2.861 12.047 1.084 3.072 2.018 6.295 3.253 9.396 1.747 4.518 1.506 9.909 5.993 13.281 0.331 0.271 0.302 0.963 0.482 1.445 0.422 1.386 0.693 2.831 1.295 4.156 2.138 4.789 4.819 9.336 6.506 14.275 1.717 5.030 5.632 8.794 7.228 13.944 1.415 4.518 5.059 8.403 7.77 12.499 1.597 2.41 3.373 4.819 4.939 7.288 2.831 4.397 5.331 9.035 8.433 13.191 2.651 3.584 5.902 6.806 8.944 10.119 4.216 4.578 8.251 9.366 12.799 13.612 5.782 5.452 11.986 10.48 18.010 15.75 4.216 3.674 8.614 7.228 12.619 11.143 2.469 2.41 4.457 5.27 6.595 8.041 0.963 1.235 1.506 2.771 2.59 3.915 4.005 4.035 8.222 7.89 12.197 11.986 3.373 3.464 6.626 7.077 9.818 10.691 1.807 2.047 3.553 4.126 5.12 6.385 1.476 2.018 2.469 4.337 3.975 6.324 1.686 2.199 3.705 4.216 5.572 6.324 1.445 1.536 3.343 2.861 4.216 4.728 1.837 3.825 4.819 6.354 8.282 8.824 4.607 3.403 8.703 7.408 13.040 11.143 3.705 3.102 7.228 6.506 11.204 9.336 5.331 3.855 10.932 7.408 16.534 10.902 2.469 1.597 3.915 3.012 2.68 6.204-0.572 1.415-0.091 3.764 0.873 5 3.403 4.427 7.228 8.583 10.932 12.86 0.813 0.904 1.807 1.686 2.71 2.499 2.892 2.71 5.662 5.541 8.764 7.981 2.771 2.108 5.963 3.705 8.975 5.572 3.825 2.41 7.59 4.879 11.504 7.197 3.192 1.897 6.806 3.192 9.788 5.361 3.313 2.41 8.131 2.169 10.541 6.023 0 0.030 0.391-0.211 0.542-0.15 2.047 0.813 4.126 1.566 6.084 2.499 3.012 1.506 5.843 3.313 8.914 4.578 3.072 1.295 6.415 1.958 9.547 3.102 8.041 3.012 15.992 6.174 24.033 9.216 5.21 2.018 10.391 4.035 15.661 5.813 7.439 2.44 14.907 4.728 22.406 6.927 7.138 2.018 14.366 3.735 21.533 5.722 5.331 1.445 10.631 3.012 15.902 4.668 7.951 2.469 15.872 5.089 23.792 7.649 4.126 1.265 8.192 2.831 12.408 3.794 5.692 1.325 11.504 2.047 17.167 3.313 6.747 1.506 13.342 3.584 20.057 4.939 4.427 0.904 9.035 0.904 13.492 1.445 6.536 0.783 13.010 1.777 19.546 2.41 4.277 0.482 8.734-0.061 12.92 0.904 4.518 0.993 8.944 1.445 13.553 1.204 1.747-0.061 3.524 1.024 5.3 1.145 7.56 0.542 15.148 0.813 22.708 1.356 2.71 0.181 5.421 0.783 8.101 1.235z" />
<glyph unicode="&#xe90f;" glyph-name="credit" d="M928.914 832h-833.829c-52.514 0-95.086-42.571-95.086-95.086v0-577.829c0-52.514 42.571-95.086 95.086-95.086h833.829c52.514 0 95.086 42.571 95.086 95.086v0 577.829c0 52.514-42.571 95.086-95.086 95.086v0zM95.086 766.171h833.829c16.399-1.363 29.641-13.362 32.873-29.021l0.041-0.237v-98.743h-896v98.743c1.685 15.433 13.824 27.572 29.11 29.244l0.147 0.013zM928.914 126.171h-833.829c-15.895 3.273-27.894 16.516-29.248 32.782l-0.009 0.133v288.914h896v-288.914c-2.945-16.86-16.054-29.969-32.673-32.879l-0.241-0.035zM128 320h65.829v-128h-65.829zM256 320h65.829v-128h-65.829zM384 320h65.829v-128h-65.829z" />
<glyph unicode="&#xe910;" glyph-name="cross-1" d="M143.375 935.403l368.618-368.659 368.618 368.618c32.766 32.807 85.97 32.807 118.777 0 32.766-32.766 32.766-86.011 0-118.777l-368.659-368.659 368.495-368.536c24.083-23.961 31.373-60.084 18.431-91.459-12.983-31.455-43.619-51.934-77.614-51.893-22.363-0.123-43.824 8.723-59.594 24.575l-368.454 368.536-368.454-368.536c-15.769-15.851-37.272-24.698-59.594-24.575-33.995 0-64.631 20.479-77.573 51.893-12.983 31.373-5.693 67.498 18.39 91.459l368.454 368.536-368.618 368.659c-32.766 32.807-32.766 86.052 0 118.818 32.807 32.766 86.011 32.766 118.777 0z" />
<glyph unicode="&#xe911;" glyph-name="cross-3" d="M674.88 448l321.6 320c12.501 12.603 20.225 29.959 20.225 49.12s-7.725 36.517-20.23 49.125l-63.995 63.995c-12.799 13.957-31.118 22.674-51.472 22.674-19.105 0-36.416-7.68-49.015-20.121l0.007 0.007-320-321.92-320 319.68c-12.603 12.501-29.959 20.225-49.12 20.225s-36.517-7.725-49.125-20.23l-63.995-63.995c-13.278-12.722-21.53-30.598-21.53-50.402 0-18.689 7.349-35.661 19.315-48.185l-0.025 0.027 320-320-319.68-320c-12.501-12.603-20.225-29.959-20.225-49.12s7.725-36.517 20.23-49.125l63.995-63.995c12.603-12.501 29.959-20.225 49.12-20.225s36.517 7.725 49.125 20.23l319.995 319.995 320-320c12.603-12.501 29.959-20.225 49.12-20.225s36.517 7.725 49.125 20.23l63.995 63.995c12.501 12.603 20.225 29.959 20.225 49.12s-7.725 36.517-20.23 49.125l0.005-0.005z" />
<glyph unicode="&#xe912;" glyph-name="cross-2" d="M976.975 947.659c5.494-3.198 10.785-5.251 16.136-7.876l-0.005-0.162c1.326-1.59 2.738-3.021 4.232-4.454 10.493-13.608 12.892-24.010 9.768-32.025-2.056-5.371-4.042-11.070-7.67-14.924-33.228-34.911-67.083-69.15-100.154-104.229-16.785-17.693-32.31-36.568-48.234-55.185-17.961-21.145-35.618-42.87-53.739-63.928-16.514-19.246-33.898-37.812-50.491-56.974-20.659-23.976-40.935-48.534-61.441-72.759-26.777-31.643-53.247-63.784-80.816-94.829l-7.838-8.094 10.254-8.807c15.708-13.14 31.75-26.050 47.37-39.35 36.285-31.082 72.395-62.566 108.599-93.646 23.741-20.408 47.656-40.497 71.399-60.824 24.93-21.262 51.878-40.564 73.958-64.325 32.101-34.593 60.681-72.311 90.766-108.783 6.158-7.446 12.313-14.972 18.13-22.894 9.379-12.92 10.311-30.419-5.496-57.326-3.194-5.413-5.332-10.781-8.038-16.131-1.671-1.323-3.098-2.654-4.45-4.151-13.692-10.57-24.094-12.969-32.109-9.846-5.371 2.056-11.067 4.123-14.922 7.751-34.914 33.146-69.15 67.083-104.229 100.154-17.696 16.704-36.571 32.231-55.187 48.153-21.143 18.042-42.87 35.618-63.928 53.739-19.244 16.595-37.731 33.895-56.974 50.491-23.976 20.659-48.452 40.932-72.678 61.438-28.409 23.983-56.993 47.648-84.981 72.022-15.378-19.286-30.924-38.728-47.561-56.833-17.479-18.968-29.95-43.393-54.633-54.636-2.311-1.057-3.603-3.123-5.29-4.934-21.166-22.17-44.527-42.071-63.021-66.854-25.404-34.21-60.664-57.513-91.621-85.516-15.935-14.31-34.76-25.271-51.789-38.325-16.694-12.741-32.592-25.997-48.809-39.079-1.587-1.245-2.545-3.079-4.518-3.742-27.067-9.697-42.642-32.307-65.335-47.032-10.224-6.63-23.206-8.452-39.597-5.603-3.551 0.693-10.511 3.779-12.684 6.698-3.49 4.752-5.785 11.169-5.808 15.151-0.074 4.877 2.323 8.368 4.315 11.873 30.259 52.238 70.099 95.041 110.1 137.758 46.069 49.004 90.094 99.949 135.533 149.544 12.835 13.932 27.317 26.181 41.098 39.266 2.519 2.349 5.033 4.537 7.32 7.218 29.421 35.207 58.138 71.249 88.342 105.615l12.256 13.626-7.821 6.366c-22.919 18.348-46.171 36.465-67.661 56.225-18.891 17.395-43.396 29.868-54.639 54.552-0.976 2.309-3.123 3.603-4.934 5.29-22.087 21.244-42.069 44.608-66.854 63.021-34.21 25.404-57.513 60.664-85.435 91.617-14.391 15.939-25.352 34.763-38.402 51.873-12.662 16.609-25.997 32.592-39.079 48.809-1.166 1.503-2.999 2.542-3.742 4.518-9.7 26.986-32.229 42.558-47.034 65.254-6.63 10.224-8.448 23.287-5.603 39.597 0.695 3.632 3.779 10.511 6.701 12.765 4.75 3.409 11.248 5.7 15.149 5.727 4.877 0.074 8.452-2.245 11.873-4.315 52.319-30.262 95.122-70.101 137.758-110.1 49.007-45.987 99.949-90.094 149.625-135.536 13.935-12.753 26.099-27.315 39.189-41.014 2.349-2.519 4.614-5.116 7.218-7.32 35.207-29.421 71.247-58.219 105.694-88.425l31.113-27.977 4.141 4.567c20.464 23.008 39.431 47.368 59.42 70.717 31.085 36.366 62.566 72.395 93.729 108.678 20.325 23.662 40.416 47.658 60.743 71.402 21.262 24.93 40.645 51.875 64.325 73.958 34.593 32.101 72.311 60.681 108.783 90.766 7.527 6.155 15.053 12.311 22.894 18.13 12.998 9.295 30.419 10.311 57.324-5.577z" />
<glyph unicode="&#xe913;" glyph-name="cycle" d="M230.4 184.686c-62.387 69.050-100.56 161.015-100.56 261.895 0 192.205 138.573 352.045 321.263 385.062l2.383 0.357v128c-119.706-12.777-224.981-66.297-303.471-146.212l-0.072-0.074c-92.928-93.25-150.383-221.902-150.383-363.974 0-138.39 54.516-264.048 143.245-356.668l-0.176 0.185-109.714-109.714 343.771-18.286v365.714l-146.286-146.286zM647.314 930.743v-362.057l146.286 142.629c62.988-69.2 101.558-161.595 101.558-262.999 0-107.018-42.96-204.003-112.576-274.649l0.047 0.047c-55.794-55.286-128.667-93.421-210.006-105.793l-2.109-0.264v-131.657c256.308 32.548 452.484 249.251 452.484 511.773 0 137.656-53.939 262.713-141.834 355.19l0.207-0.22 109.714 109.714-343.771 18.286z" />
<glyph unicode="&#xe914;" glyph-name="docs-1" d="M768 533.12h-426.24c-9.367 0-16.96-7.593-16.96-16.96s7.593-16.96 16.96-16.96v0h426.24c9.367 0 16.96 7.593 16.96 16.96s-7.593 16.96-16.96 16.96v0zM341.76 635.2h170.24c9.367 0 16.96 7.593 16.96 16.96s-7.593 16.96-16.96 16.96v0h-170.24c-9.367 0-16.96-7.593-16.96-16.96s7.593-16.96 16.96-16.96v0zM768 397.12h-426.24c-9.367 0-16.96-7.593-16.96-16.96s7.593-16.96 16.96-16.96h426.24c9.367 0 16.96 7.593 16.96 16.96s-7.593 16.96-16.96 16.96v0zM768 260.8h-426.24c-9.367 0-16.96-7.593-16.96-16.96s7.593-16.96 16.96-16.96h426.24c9.367 0 16.96 7.593 16.96 16.96s-7.593 16.96-16.96 16.96v0zM768 124.8h-426.24c-9.367 0-16.96-7.593-16.96-16.96s7.593-16.96 16.96-16.96h426.24c9.367 0 16.96 7.593 16.96 16.96s-7.593 16.96-16.96 16.96v0zM835.2 710.080v248.32h-731.52v-935.68h85.12v-85.12h731.52v687.68zM682.24 815.040l179.84-179.84h-179.84zM138.24 56.64v867.52h661.76v-179.84l-128 128h-483.2v-815.36zM224-28.16v867.2h424v-238.080h238.080v-629.12z" />
<glyph unicode="&#xe915;" glyph-name="docs-2" d="M928 890.56h-399.68v9.6c0 33.049-26.791 59.84-59.84 59.84v0h-69.44c-33.049 0-59.84-26.791-59.84-59.84v0-9.92h-96c-9.013 0-16.32-7.307-16.32-16.32v0-131.2h-130.88c-9.013 0-16.32-7.307-16.32-16.32v0-608s0 0 0-1.6v-7.36l165.12-165.12h493.44c9.013 0 16.32 7.307 16.32 16.32v0 62.4h173.44c9.013 0 16.32 7.307 16.32 16.32v0 834.88c0 9.013-7.307 16.32-16.32 16.32v0zM371.84 900.16c-0.005 0.191-0.008 0.415-0.008 0.64 0 15.022 12.178 27.2 27.2 27.2 0.003 0 0.005 0 0.008 0h69.44c15.022 0 27.2-12.178 27.2-27.2v0-9.92h-123.84v9.28zM371.84 710.080h80.32v-80.32h-80.32v80.32zM448 596.8c-5.015-6.636-12.892-10.88-21.76-10.88v0h-26.24c-8.868 0-16.745 4.244-21.71 10.812l-0.050 0.068zM258.56 857.92h80.64v-115.2h-80.64zM243.52 39.36v-47.68l-109.44 109.44h109.44zM721.92 39.36v-71.36h-445.76v149.44c0 9.013-7.307 16.32-16.32 16.32v0h-148.8v576h228.16v-80.32h-131.52c-7.526-1.553-13.104-8.125-13.104-16s5.578-14.447 12.998-15.982l0.106-0.018h133.76c7.348-25.323 30.334-43.52 57.572-43.52 0.010 0 0.020 0 0.030 0h26.238c0.008 0 0.018 0 0.028 0 27.237 0 50.224 18.197 57.466 43.097l0.105 0.423h150.72c0.967-0.203 2.078-0.32 3.216-0.32 9.013 0 16.32 7.307 16.32 16.32s-7.307 16.32-16.32 16.32c-1.138 0-2.249-0.117-3.322-0.338l0.106 0.018h-148.8v80.64h237.12v-672zM913.92 55.68h-160v670.72c0 9.013-7.307 16.32-16.32 16.32h-252.8v79.36c-1.553 7.526-8.125 13.104-16 13.104s-14.447-5.578-15.982-12.998l-0.018-0.106v-79.36h-80.96v115.2h541.44v-802.24zM633.6 490.24h-425.92c-7.526-1.553-13.104-8.125-13.104-16s5.578-14.447 12.998-15.982l0.106-0.018h425.92c7.526 1.553 13.104 8.125 13.104 16s-5.578 14.447-12.998 15.982l-0.106 0.018zM633.6 352h-425.92c-0.967 0.203-2.078 0.32-3.216 0.32-9.013 0-16.32-7.307-16.32-16.32s7.307-16.32 16.32-16.32c1.138 0 2.249 0.117 3.322 0.338l-0.106-0.018h425.92c7.526 1.553 13.104 8.125 13.104 16s-5.578 14.447-12.998 15.982l-0.106 0.018zM633.6 212.16h-425.92c-7.526-1.553-13.104-8.125-13.104-16s5.578-14.447 12.998-15.982l0.106-0.018h425.92c7.526 1.553 13.104 8.125 13.104 16s-5.578 14.447-12.998 15.982l-0.106 0.018z" />
<glyph unicode="&#xe916;" glyph-name="arrow" d="M924.14 386.389c-55.458-57.421-121.713-99.971-186.495-144.485-65.274-44.611-129.565-90.794-194.348-135.946-15.705-11.091-31.9-23.557-53.004-18.012-17.177 19.778-8.834 38.918-0.981 56.489 36.808 78.034 90.794 140.755 168.337 181.195 46.624 24.392 81.96 61.838 118.278 98.303 0.981 1.080-0.981 4.712-1.963 11.631-62.329 0.295-126.621 4.27-188.949-4.908-85.886-12.76-171.772-11.484-257.658-12.76-76.070-1.129-152.631 6.92-228.211-6.724-31.41-5.546-55.949 14.968-84.904 27.974-4.908 18.649-9.815 37.299-14.232 55.752 5.398 7.117 9.325 13.496 14.723 18.159 20.122 16.687 44.17 21.889 69.2 22.085 86.377 0.344 172.754 3.092 259.13 0.344 94.229-3.092 187.477 7.999 280.234 20.22 33.864 4.417 67.727 9.57 99.628 14.232 5.398 20.171-6.38 26.993-15.705 33.913-36.317 26.257-74.598 49.568-107.971 78.622-25.521 22.281-46.133 50.747-66.746 78.082-11.288 14.723-1.963 34.060 16.196 42.010 19.14 8.49 38.281 9.718 56.93 0.098 13.251-6.773 26.502-13.889 37.79-23.214 57.912-47.36 125.639-78.034 188.458-117.492 39.753-25.226 80.978-47.115 129.074-53.249 27.974-3.582 43.679-20.073 48.096-47.998 7.362-45.544 26.993-90.696 4.417-141.835-54.967-1.571-58.402-0.491-89.321-32.539z" />
<glyph unicode="&#xe917;" glyph-name="arrow1" d="M869.833 459.198c-10.618 2.256-18.25 5.309-25.883 5.11-31.856-0.83-63.379-2.489-94.904-3.982-6.637-0.299-13.273-1.427-19.91-1.758-95.235-4.48-189.476-18.151-285.043-14.203-45.461 1.891-89.263-10.751-133.396-18.782-41.147-7.466-82.294-12.942-123.441-19.578-8.296-1.294-17.255-2.058-23.56-6.205-35.838-22.233-74.33-15.596-112.491-12.477-18.583 1.56-34.842 11.282-45.793 27.542-9.291 13.837-6.637 30.96 8.296 38.492 14.932 7.466 30.197 14.634 46.456 18.383 24.224 5.707 49.443 8.296 73.998 12.278 37.829 6.106 76.321 9.955 113.486 19.014 50.438 12.278 100.876 23.096 152.31 28.737 38.161 4.148 76.653 3.982 115.145 5.376 23.228 0.797 46.456 0.464 69.684 1.46 41.81 1.858 83.621 4.082 125.1 6.703 9.623 0.664 19.246 3.352 27.21 4.845 5.641 12.942-0.995 18.848-8.628 22.1-26.546 10.951-51.434 23.56-71.344 45.129-7.632 8.030-19.91 11.614-30.528 16.923-30.86 15.928-62.052 31.557-92.913 47.95-3.65 1.991-7.964 8.362-7.3 11.946 0.995 5.774 4.314 12.942 9.291 16.028 17.919 11.78 37.829 13.506 57.407 4.977 24.224-10.685 50.106-20.109 71.675-35.008 40.815-27.774 86.276-43.47 130.741-62.285 16.923-7.168 33.847-14.434 49.443-23.627 31.856-18.55 62.716-38.36 99.549-46.423 16.923-3.75 29.533-14.037 38.492-29.533 10.618-18.715 23.56-36.336 35.174-54.619 9.955-15.596 7.3-28.67-8.96-37.994-12.942-7.433-26.879-12.742-40.815-18.848-11.946-5.376-24.887-9.291-36.169-16.061-44.465-26.48-88.599-52.96-135.719-74.994-71.012-33.183-139.701-71.144-208.39-109.172-36.169-20.142-75.657-24.821-115.145-31.026-4.646-0.73-9.955 1.327-14.601 2.522-7.964 2.024-13.937 12.444-10.618 19.744 3.319 7.532 6.968 15.198 12.278 21.569 18.25 22.432 41.479 38.492 67.030 51.633 42.806 22.166 85.612 44.863 129.082 66.366 23.892 11.846 48.448 21.735 73.003 32.42 4.646 2.024 9.623 3.252 13.937 5.707 28.869 16.459 58.071 32.752 86.608 49.94 13.605 8.296 29.201 14.966 40.152 33.681z" />
<glyph unicode="&#xe918;" glyph-name="download-1" d="M855.040 960h-339.2c-20.854 0-37.76-16.906-37.76-37.76v-579.2l-83.2 83.2c-6.59 5.748-15.267 9.253-24.762 9.253-20.854 0-37.76-16.906-37.76-37.76 0-9.575 3.564-18.318 9.438-24.974l-0.035 0.041 147.52-147.52c6.784-6.827 16.178-11.052 26.56-11.052s19.776 4.225 26.558 11.050l147.522 147.522c5.838 6.615 9.402 15.358 9.402 24.933 0 20.854-16.906 37.76-37.76 37.76-9.495 0-18.172-3.505-24.807-9.291l0.045 0.038-83.2-83.2v541.76h301.44c53.019 0 96-42.981 96-96v0-680.32c0-53.019-42.981-96-96-96v0h-678.4c-53.019 0-96 42.981-96 96v0 679.040c0 53.019 42.981 96 96 96v0h88c21.119 0 38.24 17.121 38.24 38.24s-17.121 38.24-38.24 38.24v0h-88c-95.185-0.182-172.298-77.295-172.48-172.463v-679.057c0.182-95.185 77.295-172.298 172.463-172.48h678.417c0 0 0 0 0 0 95.322 0 172.618 77.183 172.8 172.463v679.057c-0.363 95.224-77.55 172.299-172.783 172.48h-0.017z" />
<glyph unicode="&#xe919;" glyph-name="download-2" d="M1027.84-64h-1023.68v576c-0.014 0.303-0.022 0.657-0.022 1.014 0 12.17 9.435 22.135 21.389 22.982l0.073 0.004c12.027-0.851 21.462-10.816 21.462-22.986 0-0.357-0.008-0.711-0.024-1.064l0.002 0.050v-528h937.6v528c-0.102 0.791-0.16 1.706-0.16 2.634 0 12.018 9.742 21.76 21.76 21.76s21.76-9.742 21.76-21.76c0-0.928-0.058-1.843-0.171-2.741l0.011 0.107zM494.4 528.64v407.36c-0.102 0.791-0.16 1.706-0.16 2.634 0 12.018 9.742 21.76 21.76 21.76s21.76-9.742 21.76-21.76c0-0.928-0.058-1.843-0.171-2.741l0.011 0.107v-407.36h161.92c0.865 0.075 1.872 0.118 2.888 0.118 19.617 0 35.52-15.903 35.52-35.52 0-0.266-0.003-0.532-0.009-0.797l0.001 0.039c-0.346-11.222-4.392-21.437-10.952-29.532l0.072 0.092-175.040-232.64c-7.922-11.709-21.154-19.303-36.16-19.303s-28.238 7.595-36.062 19.15l-0.098 0.153-175.040 232.64c-6.395 8.024-10.337 18.251-10.559 29.391l-0.001 0.049c-0.005 0.225-0.008 0.491-0.008 0.758 0 19.617 15.903 35.52 35.52 35.52 1.017 0 2.023-0.043 3.018-0.126l-0.13 0.009zM348.16 480l163.84-218.88c0.433-1.289 1.63-2.201 3.040-2.201s2.607 0.912 3.033 2.178l0.007 0.023 165.76 218.88z" />
<glyph unicode="&#xe91a;" glyph-name="download-3" d="M512 413.76l256 272.96h-192v273.28h-128v-272.96h-192zM744.64 525.44l-72.64-77.44 260.16-103.36-420.16-166.4-421.12 167.36 261.12 102.4-72.64 77.44-279.36-111.68v-272.96l512-204.8 512 204.8v272.96z" />
<glyph unicode="&#xe91b;" glyph-name="edit" d="M896-64h-768c-70.692 0-128 57.308-128 128v0 768c0 70.692 57.308 128 128 128v0h574.171l-128-128h-380.343c-36.356 0-65.829-29.472-65.829-65.829v0-640c1.993-34.748 30.657-62.172 65.727-62.172 0.036 0 0.071 0 0.107 0h636.337c0.030 0 0.066 0 0.102 0 35.070 0 63.734 27.424 65.719 61.996l0.008 0.176v384l128 128v-574.171c0-70.692-57.308-128-128-128v0zM896 832l-65.829 62.171v65.829s193.829 3.657 193.829-193.829h-65.829zM321.829 254.171v193.829h62.171l128-128v-65.829zM896 704l-321.829-321.829-124.343 128 318.171 321.829z" />
<glyph unicode="&#xe91c;" glyph-name="email" d="M516.16 360.32l-462.080 405.44h923.84zM332.16 448l-323.84-284.16v568.64zM374.080 411.2l142.080-123.2 142.080 124.8 320-280.96h-924.48zM699.84 448l324.16 284.48v-568.64z" />
<glyph unicode="&#xe91d;" glyph-name="arrow2" d="M862.209 455.476c13.644-7.509 26.276-5.243 30.332 5.284 1.491 3.919-1.214 12.098-4.591 14.784-9.863 6.797-23.325 3.54-27.415-6.6-1.677-4.179 1.155-10.226 1.674-13.467zM660.69 665.946c61.188-20.62 122.167-41.855 183.771-61.245 27.181-8.707 56.706-10.679 83.201-20.829 53.68-20.697 88.607-58.143 95.657-118.467 2.829-23.694-3.139-42.308-19.715-58.474-41.214-40.179-74.675-86.674-110.679-131.331-22.442-27.854-49.040-52.206-65.887-84.762-6.931-13.279-21.087-22.386-31.824-33.468-13.689-14.157-29.476-17.175-44.968-5.289-22.273 17.271-35.956 41.716-43.237 68.715-4.6 16.995 7.055 28.649 18.827 39.868 18.007 17.179 35.814 34.84 52.485 53.526 9.487 10.7 20.937 23.209 12.897 38.513-8.261 15.432-25.184 10.128-39.033 10.403-37.085 0.086-74.21 0.931-111.325-0.437-18.861-0.509-37.613-5.859-56.51-7.45-41.446-3.646-82.025-16.617-124.263-12.085-8.045 0.968-16.551-1.475-24.834-2.575l-110.128-14.731c-3.596-0.498-7.33-0.915-10.863-0.346-70.035 12.492-140.926 1.212-211.247 7.986-54.376 5.289-82.629 24.175-99.836 73.083-6.881 19.414-3.128 30.117 16.819 35.881 15.839 4.827 33.443 8.634 49.318 6.455 77.873-9.296 155.532 0.651 233.096-0.011 10.786 0.023 21.486-1.375 32.23-2.063l0.083-0.048c54.571 7.466 109.115 14.949 163.741 22.383 20.19 2.683 40.324 5.397 60.664 7.258 53.579 4.73 107.256 10.139 160.95 12.964 22.561 1.313 45.283-3.716 67.882-4.631 12.621-0.301 26.214-1.53 39.74 10.881-9.473 4.734-15.889 9.542-23.27 11.596-96.379 29.908-187.879 71.705-278.721 114.961-35.923 17.064-69.568 38.327-86.448 77.486-2.412 5.437-5.046 11.002-6.941 16.508-3.465 11.192-3.040 21.609 6.436 29.742 8.238 7.009 17.505 6.438 27.021 2.415 26.299-11.508 52.758-22.739 79.348-33.679 36.465-15.171 73.034-30.033 109.47-45.187l0.227-0.499 2.598-1.868 3.131-1.072 0.138-0.080z" />
<glyph unicode="&#xe91e;" glyph-name="flow-tree" d="M943.543 188.343v124.343c0.099 2.229 0.156 4.843 0.156 7.47 0 98.969-80.231 179.2-179.2 179.2-2.627 0-5.241-0.057-7.841-0.168l0.371 0.013h-109.714c-76.8 0-84.114 36.571-84.114 58.514v149.943c46.903 21.16 79.219 67.003 80.454 120.528l0.003 0.157c0 72.712-58.945 131.657-131.657 131.657s-131.657-58.945-131.657-131.657v0c1.238-53.682 33.554-99.526 79.605-120.341l0.852-0.345v-149.943c0-14.629-3.657-58.514-84.114-58.514h-109.714c-2.229 0.099-4.843 0.156-7.47 0.156-98.969 0-179.2-80.231-179.2-179.2 0-2.627 0.057-5.241 0.168-7.841l-0.013 0.371v-124.343c-46.903-21.16-79.219-67.003-80.454-120.528l-0.003-0.157c0-72.712 58.945-131.657 131.657-131.657v0c71.122 2.038 128 60.18 128 131.606 0 0.018 0 0.036 0 0.054v-0.003c0.002 0.297 0.004 0.648 0.004 1 0 52.819-31.104 98.374-75.995 119.347l-0.809 0.339v124.343c-0.056 1.118-0.087 2.427-0.087 3.744 0 44.435 36.022 80.457 80.457 80.457 1.317 0 2.627-0.032 3.928-0.094l-0.184 0.007h109.714c2.308-0.093 5.016-0.146 7.737-0.146 27.519 0 53.77 5.428 77.741 15.271l-1.364-0.496v-223.086c-46.903-21.16-79.219-67.003-80.454-120.528l-0.003-0.157c0-72.712 58.945-131.657 131.657-131.657s131.657 58.945 131.657 131.657v0c-1.238 53.682-33.554 99.526-79.605 120.341l-0.852 0.345v223.086c22.607-9.347 48.858-14.775 76.377-14.775 2.721 0 5.43 0.053 8.125 0.158l-0.388-0.012h109.714c1.118 0.056 2.427 0.087 3.744 0.087 44.435 0 80.457-36.022 80.457-80.457 0-1.317-0.032-2.627-0.094-3.928l0.007 0.184v-124.343c-45.7-21.312-76.804-66.867-76.804-119.686 0-0.352 0.001-0.703 0.004-1.054v0.054c-1.163-6.574-1.829-14.143-1.829-21.867 0-72.712 58.945-131.657 131.657-131.657s131.657 58.945 131.657 131.657c0 7.724-0.665 15.293-1.941 22.652l0.113-0.785c-1.238 53.682-33.554 99.526-79.605 120.341l-0.852 0.345zM204.8 67.657c0.058-1.092 0.091-2.371 0.091-3.657 0-40.396-32.747-73.143-73.143-73.143-0.032 0-0.064 0-0.097 0h0.005c-42.415 0-76.8 34.385-76.8 76.8v0c0 0.027 0 0.059 0 0.091 0 40.396 32.747 73.143 73.143 73.143 1.286 0 2.565-0.033 3.835-0.099l-0.178 0.007c40.396 0 73.143-32.747 73.143-73.143v0zM435.2 828.343c0 42.415 34.385 76.8 76.8 76.8s76.8-34.385 76.8-76.8v0c0-42.415-34.385-76.8-76.8-76.8s-76.8 34.385-76.8 76.8v0zM588.8 67.657c0.055-1.092 0.087-2.371 0.087-3.657 0-42.415-34.385-76.8-76.8-76.8s-76.8 34.385-76.8 76.8c0 42.385 34.335 76.75 76.708 76.8h0.005c0.026 0 0.056 0 0.087 0 41.129 0 74.707-32.331 76.706-72.964l0.007-0.179zM892.343-9.143c-0.027 0-0.059 0-0.091 0-40.396 0-73.143 32.747-73.143 73.143 0 1.286 0.033 2.565 0.099 3.835l-0.007-0.178c0 40.396 32.747 73.143 73.143 73.143v0c1.092 0.058 2.371 0.091 3.657 0.091 40.396 0 73.143-32.747 73.143-73.143 0-0.032 0-0.064 0-0.097v0.005c0-42.415-34.385-76.8-76.8-76.8v0z" />
<glyph unicode="&#xe91f;" glyph-name="folder" d="M833.829 34.743l190.171 512h-830.171l-193.829-512zM128 612.571l-128-577.829v833.829h288.914l128-128h416.914v-128z" />
<glyph unicode="&#xe920;" glyph-name="prev" d="M578.526 959.985c-2.613-0.459-5.191-1.059-7.821-1.236-7.292-0.547-14.617-0.83-21.909-1.359-1.73-0.124-3.443-1.201-5.12-1.112-4.449 0.194-8.722-0.265-13.099-1.236-4.008-0.971-8.333-0.424-12.482-0.883-6.303-0.671-12.553-1.642-18.855-2.436-4.326-0.53-8.775-0.53-13.011-1.448-6.515-1.359-12.887-3.425-19.367-4.908-5.491-1.289-11.105-2.030-16.577-3.354-4.061-0.936-8.015-2.507-12.006-3.796-7.645-2.56-15.271-5.173-22.951-7.645-5.085-1.66-10.222-3.213-15.359-4.661-6.921-1.977-13.911-3.708-20.797-5.738l-4.843-1.284c-7.242-2.231-14.433-4.58-16.766-5.601-5.12-1.783-10.116-3.814-15.147-5.826-7.751-3.072-15.43-6.215-23.198-9.216-3.037-1.148-6.25-1.818-9.216-3.090-2.966-1.289-5.703-3.107-8.598-4.59-1.907-0.953-3.902-1.695-5.879-2.525-0.141-0.035-0.53 0.212-0.565 0.159-2.278-3.831-6.974-3.584-10.152-6.020-2.878-2.154-6.356-3.478-9.446-5.367-3.761-2.313-7.398-4.802-11.105-7.186-2.895-1.871-5.985-3.46-8.651-5.579-3.019-2.436-5.667-5.279-8.474-7.962-0.883-0.83-1.836-1.624-2.595-2.525-3.602-4.255-7.274-8.439-10.593-12.852l0.014 0.021c-0.671-0.985-1.063-2.174-1.063-3.455 0-0.555 0.074-1.094 0.202-1.562 1.236-3.213-0.177-4.626-2.578-6.179-5.42-3.531-10.805-7.062-15.959-10.946-3.814-2.807-7.239-6.197-10.823-9.34-4.184-3.725-8.139-7.733-12.588-11.105-3.319-2.472-6.197-4.996-7.998-8.828-0.83-1.871-2.684-3.196-4.061-4.767-1.801-2.101-3.743-4.096-5.367-6.285-1.465-2.013-2.436-4.326-3.831-6.356l-0.153-0.23c-1.519-2.158-3.154-4.23-4.826-6.126-3.090-3.637-6.197-7.221-9.463-10.699-3.849-4.078-7.927-7.962-11.794-12.006-1.024-1.13-1.571-2.648-2.489-3.884-2.048-2.772-3.972-5.667-6.374-8.068-3.884-3.919-8.086-7.468-12.182-11.158-5.791-5.226-11.794-10.275-17.389-15.712-4.378-4.273-8.298-9.039-12.359-13.629-2.948-3.302-6.073-6.532-8.633-10.116-2.984-4.184-5.402-8.81-8.139-13.187-1.518-2.472-3.213-4.873-4.767-7.309-2.613-4.078-6.126-7.962-7.486-12.465-1.571-5.173-5.35-8.916-7.009-13.947-1.624-4.943-4.202-9.516-6.285-14.3-0.565-1.324-0.83-2.772-1.254-4.131-0.141-0.494-0.124-1.201-0.459-1.448-4.308-3.39-4.078-8.792-5.791-13.293-1.183-3.107-2.083-6.321-3.125-9.428-1.254-3.831-2.842-7.715-2.772-12.006 0.053-2.154-1.483-4.29-1.713-6.532-0.3-3.054-0.035-6.197-0.071-9.304-0.053-3.778-0.177-7.539-0.265-11.299 0-0.459-0.088-1.112 0.141-1.289 2.083-1.43 1.112-3.213 0.618-4.943-1.642-5.862-3.196-11.811-4.979-17.637-1.271-4.167-3.143-8.227-4.273-12.429-0.847-3.266-0.883-6.691-1.412-10.046-0.247-1.571-0.918-3.107-1.165-4.696-0.282-1.942-0.23-3.919-0.477-5.862-0.177-1.624-0.53-3.231-0.883-4.838-0.918-3.919-2.525-7.927-1.112-11.9 1.095-3.143 0.3-5.773-0.6-8.669-0.583-1.818-1.077-4.131-0.441-5.773 1.006-2.578 0.177-4.838 0-7.239-0.265-3.637-0.247-7.309-0.3-10.946-0.053-2.56-0.018-5.12-0.053-7.68-0.053-5.614-0.035-11.229-0.194-16.842-0.071-2.242-0.494-4.467-0.742-6.691l0.007 0.075c-0.071-0.616-0.108-1.242-0.108-1.876 0-0.223 0.005-0.446 0.012-0.635 0.053-0.706 0.406-1.448 0.353-2.154-0.353-3.884-0.9-7.715-1.183-11.564-0.335-4.537-0.6-9.092-0.636-13.611-0.018-2.242 0.618-4.467 0.865-6.709 0.53-4.749-0.918-9.446 1.377-14.37 1.889-4.078 2.013-9.075 2.366-13.699 0.335-4.343 1.907-8.316 2.807-12.447 0.706-3.249 0.494-6.674 2.189-9.781l-0.773 1.495c2.931-5.209 5.71-10.516 9.107-17.684 0.989-2.101 0.9-4.661 1.73-6.903 1.148-3.090 2.931-5.932 4.008-9.075 2.383-6.833 4.484-13.717 6.691-20.603 1.501-4.626 2.895-9.304 4.467-13.929 1.218-3.584 2.631-7.062 3.972-10.611 0.018-0.071 0.088-0.212 0.177-0.247 5.173-4.237 3.778-11.158 6.444-16.595 3.443-7.062 7.574-13.876 10.134-21.362 0.512-1.571 0.441-3.39 1.183-4.82 2.878-5.667 6.003-11.246 9.004-16.86 0.724-1.359 1.342-2.754 2.013-4.167 1.077-2.278 1.748-4.961 3.354-6.78 3.178-3.637 6.426-7.097 7.433-12.111 0.071-0.353 0.194-0.936 0.459-1.059 4.025-2.189 5.014-6.197 6.691-10.081 1.695-3.919 4.82-7.256 7.539-10.646 1.607-2.030 4.078-3.478 5.314-5.614 1.942-3.39 3.249-7.115 4.661-10.734 0.53-1.324 0.3-2.984 0.936-4.22 4.22-8.351 8.457-16.595 13.576-24.487 5.455-8.386 11.953-15.606 18.625-22.845 3.99-4.378 8.157-8.669 11.37-13.593 2.984-4.537 7.804-7.468 9.869-12.712 0.53-1.324 2.895-1.783 3.849-3.019 4.396-5.985 11.264-8.633 16.701-13.134 7.998-6.55 17.142-11.264 25.405-17.389 4.237-3.178 9.463-4.908 14.088-7.592 5.561-3.178 10.982-6.638 16.454-9.993 1.412-0.865 2.772-1.854 4.22-2.595 5.226-2.684 10.417-5.42 15.712-7.892 4.131-1.907 8.474-3.39 12.659-5.155 1.783-0.777 3.372-2.030 5.138-2.895 3.708-1.854 7.503-3.478 11.158-5.367 2.401-1.201 4.502-3.054 6.956-4.096l-12.685 4.788c9.677-4.111 19.393-8.145 42.132-16.757 6.674-2.684 13.276-5.667 20.126-7.804 6.638-2.119 13.699-2.895 20.267-5.155 3.584-1.218 7.027-1.13 10.558-1.589 4.537-0.53 8.986-2.030 13.541-2.56 5.544-0.653 11.176-0.865 16.771-1.148 3.99-0.212 7.998-0.159 11.97-0.406l1.932-0.108c6.549-0.457 13.068-1.017 16.958-1.463 7.309-0.706 14.582-1.818 21.891-2.278 5.279-0.335 10.593 0.424 15.889 0.247 8.033-0.212 16.048-0.83 24.045-1.236l-1.787 0.061c5.286-0.225 10.584-0.403 16.969-0.555l-0.111 0.003c0.769-0.029 1.542-0.043 2.318-0.043s1.549 0.014 2.207 0.040c3.672 0.194 7.327 0.53 10.999 0.618 3.478 0.088 6.974-0.335 10.434-0.177 4.714 0.265 9.375 0.883 14.070 1.324 0.406 0.053 0.83 0.141 1.254 0.141l20.62 1.059c5.473 0.3 10.982 0.335 16.401 1.042 3.090 0.371 6.020 1.801 9.057 2.684 1.077 0.282 2.278 0.194 3.407 0.318 3.407 0.459 6.815 0.247 9.781 2.984 1.536 1.448 4.467 1.359 6.744 2.013 4.078 1.254 8.545 1.324 11.988 4.378 0.441 0.424 1.483 0.053 2.136 0.3 4.061 1.571 25.175 5.155 34.886 23.163 1.377 0.371 1.289 13.223 3.178 13.541l0.159 0.918c1.359 0.371 2.648 0.706 3.919 1.148 0.777 0.247 1.483 0.918 2.26 0.953 6.073 0.459 11.034 3.919 16.577 5.862 3.919 1.359 8.015 2.225 11.935 3.637 2.631 0.953 5.014 2.578 7.574 3.637 2.842 1.236 5.826 2.101 8.651 3.337 4.096 1.818 8.104 3.814 12.094 5.791 1.942 0.953 4.167 1.695 5.65 3.196 3.425 3.284 7.945 4.484 11.829 6.886 7.362 4.537 14.37 9.657 21.538 14.529 4.555 3.107 9.852 5.491 13.558 9.41 3.249 3.513 7.574 4.431 10.982 7.115 2.295 1.854 4.131 4.626 6.709 5.703 3.054 1.271 4.59 3.655 6.656 5.773 1.554 1.66 3.619 2.772 5.402 4.22 3.266 2.595 6.215 5.773 9.834 7.715 3.919 2.101 5.297 6.568 9.304 8.51 3.443 1.642 6.515 4.096 9.64 6.409 4.361 3.178 8.739 6.303 12.852 9.816 3.354 2.86 6.285 6.285 9.534 9.287 2.172 2.083 4.626 3.814 6.833 5.826 1.871 1.748 2.366 3.761 0.124 6.744 1.483 0.124 2.825-0.159 3.354 0.371 0.918 0.865 2.154 2.931 1.818 3.39-2.648 3.372 0.247 5.402 1.624 7.68 1.783 2.966 3.814 5.826 5.667 8.757 0.177 0.282 0.177 0.989-0.018 1.183-1.571 1.818 0.053 2.489 1.165 2.86l0.067 0.018c2.696 0.858 4.867 2.891 5.936 5.561l0.052 0.123c0.988 2.11 2.333 4.019 3.956 5.65 3.178 3.302 3.566 8.386 6.497 11.282 3.143 3.090 3.884 7.186 6.409 10.364 0.847 1.077 0.971 2.719 1.448 4.078 0.212 0.583 0.335 1.501 0.689 1.624 2.931 0.989 2.842 4.449 4.943 6.073 0.141 0.124 0.282 0.441 0.23 0.565-1.624 3.478 2.066 3.602 3.425 5.367-0.742 1.783-1.024 3.196 1.165 4.714 2.595 1.783 2.631 3.443 1.677 7.15 4.714 0.777 3.919 5.526 5.756 8.422 1.271 2.013 2.066 4.343 2.86 6.603 0.353 1.042-0.141 2.472 0.388 3.354 0.953 1.607 2.401 2.966 3.549 4.502l-0.025-0.032c0.92 1.151 1.685 2.432 2.302 3.916 3.955 1.801 5.844 4.943 4.873 8.916 1.907 0.618 3.919 1.024 3.39 4.008-0.159 0.847 0.918 2.013 1.554 2.966 1.554 2.383 4.255 4.096 3.778 7.68-0.141 1.042 1.342 2.278 1.942 3.513 0.918 1.942 3.284 3.249 2.242 6.073-0.194 0.53 1.536 1.607 2.066 2.613 1.165 2.225 4.467 3.125 3.531 6.886-0.388 1.483 1.695 3.549 2.472 5.455 2.083 4.908 3.955 9.94 6.144 14.865 1.006 2.26 1.13 4.326-0.424 6.85 3.955-0.335 3.831 1.818 3.531 4.343-0.106 0.777 0.565 1.695 0.936 2.719l-0.83 0.618c0.071 1.818-0.106 3.178 0.282 4.378 0.335 1.077-0.9 3.178 1.607 3.143 0 0.989 0.282 2.154-0.071 2.966-0.759 1.818-1.801 3.39 1.589 3.143 0.353-0.035 1.165 1.536 1.201 2.366 0.018 1.059-0.794 2.101-0.794 3.178 0.035 2.172 0.371 4.378 0.618 6.938l2.542 1.448-2.154 4.943c3.231 1.942 3.372 2.895 1.236 5.826-0.477 0.653-0.742 1.448-1.148 2.278 0.512 0.371 0.9 0.689 1.342 0.989l2.472 1.483c-0.883 0.124-1.783 0.247-2.648 0.459-0.494 0.124-0.953 0.318-2.119 0.777l4.061 1.66c0.141 1.359-0.194 3.143 0.494 3.761 2.313 2.066 1.924 4.573 1.995 7.133 0.071 2.525 0.724 4.961 0.865 7.45 0.035 0.883-0.689 1.801-1.218 3.178 1.66 1.766 3.001 4.237 0.424 7.38-0.265 0.335 0.636 2.030 1.342 2.684 1.324 1.289 1.589 2.366 0.177 3.637-1.112 0.989-1.165 1.854-0.212 3.143 1.483 1.977 1.818 4.167-0.459 6.109 1.448 0.918 2.825 1.766 4.449 2.825l-1.66 5.65 1.412 0.282c-0.071 2.313-4.061 5.085 1.412 6.321v0.618h-0.477l-2.295 5.95c1.483 1.695 0.106 3.708-0.353 5.862-0.847 4.043-2.472 8.545-0.441 12.147 1.536 2.666 0.847 4.908 0.883 7.256 0.124 6.374-1.536 12.606-1.818 18.978-0.194 4.202-0.689 8.369-1.254 12.535-0.406 3.054-2.225 6.409-1.465 9.057 1.077 3.831-1.695 6.179-1.942 9.446-0.23 3.302-2.825 6.409-3.902 9.71-1.607 4.873-3.284 9.781-4.043 14.829-0.812 5.438-0.53 11.017-0.883 16.56-0.106 1.73-0.971 3.425-1.148 5.155-0.194 2.101-0.053 4.255-0.053 6.691 2.225 1.977 1.554 9.34-0.989 12.518 0 2.189-0.212 3.672 0.088 5.085 0.177 0.989 1.042 1.854 1.766 3.054-0.194 0.194-0.759 0.9-1.324 1.642l0.706 0.124c-0.106 1.448-0.053 2.931-0.353 4.378-0.9 4.343-1.818 8.722-2.931 13.046-2.013 7.821-3.884 15.694-6.391 23.374-2.313 7.115-5.049 14.176-8.227 20.973-2.295 4.89-3.354 9.887-3.796 15.182-0.071 0.812-1.024 1.589-1.148 2.472-0.353 2.225-0.494 4.52-0.689 6.815-0.053 0.653 0.159 1.359-0.053 1.907-1.377 3.354-2.966 6.638-4.237 10.063-0.724 1.889-0.794 4.078-1.43 6.020-1.818 5.72-3.655 11.405-5.773 17.019-1.254 3.302-3.107 6.409-4.52 9.622-2.648 5.985-4.961 12.111-7.768 17.972-3.602 7.556-7.733 14.865-11.264 22.456-2.401 5.173-3.884 10.787-6.321 15.942-1.165 2.525-3.672 4.378-5.367 6.656-0.636 0.865-0.689 2.119-1.006 3.178-0.335 1.165-0.459 2.472-1.095 3.46-1.836 2.86-3.884 5.526-5.826 8.351-0.3 0.406-0.706 0.865-0.724 1.359-0.335 4.908-3.866 6.974-7.662 8.969-1.624 0.83-2.701 2.136-1.536 4.202 1.059 1.871 0.388 2.525-1.448 3.761-2.489 1.695-4.061 4.714-6.144 7.062-3.125 3.549-6.091 7.362-9.657 10.417-1.766 1.483-4.749 1.518-7.38 2.842l3.619 1.165c0.53 2.26-1.624 3.125-3.178 4.449-1.13 0.918-2.101 2.030-3.16 3.054-0.706 0.706-1.289 1.66-2.154 2.119-2.684 1.359-5.42 2.684-8.227 3.796-0.794 0.318-1.854-0.088-3.619-0.212l2.948 3.672c-1.306 3.107-7.768 5.791-11.476 4.061-0.424 2.348-5.35 2.189-3.090 6.303-2.754 2.86-5.508 3.725-7.892 2.366-1.024 1.571-1.766 3.46-4.308 3.266-0.777-0.053-1.73 1.059-2.472 1.766-1.112 1.024-2.101 2.154-3.478 2.966-0.477 0.883 0.547 1.783-1.907 2.825-3.019 1.236-6.762 1.977-9.004 5.438-1.148 1.783-4.149 2.366-6.268 3.513-0.865 0.494-1.924 0.918-2.383 1.695-1.518 2.436-2.701 2.613-4.502 0.424-2.207 1.359-4.237 3.337-6.603 3.919-4.484 1.112-8.369 4.838-13.488 3.46-0.247-0.071-0.618 0.088-0.847 0.3-3.46 2.472-7.574 2.136-11.458 2.842-0.847 0.124-1.607 0.742-2.401 1.165-0.424 0.194-0.83 0.689-1.218 0.653-3.725-0.371-5.297 0.706-5.809 3.478l-4.202 3.090 0.53 0.9c0.689 0.177 1.359 0.3 2.066 0.424l0.177 0.777c-0.865 0.177-1.713 0.371-2.578 0.494-0.282 0.053-0.6-0.124-0.071 0-4.061 3.761-7.698 7.15-11.388 10.54-0.282 0.282-0.742 0.583-1.095 0.53-3.143-0.494-5.032 1.871-8.033 3.849l0.883-3.761c-1.042 0.247-2.383 0.088-2.948 0.706-2.931 3.090-6.391 5.067-10.311 6.603-1.766 0.706-3.814 2.278-4.431 3.919-0.971 2.631-2.878 3.549-4.996 4.22-3.972 1.271-8.051 2.242-12.094 3.302-0.3 0.035-0.794 0.035-0.883 0.212-2.136 4.749-7.362 3.178-10.858 5.332-3.866 2.383-8.333 3.884-12.623 5.473-3.337 1.289-6.78 2.242-10.222 3.231-4.096 1.201-8.227 2.313-12.359 3.46-4.643 1.289-9.287 2.648-13.947 3.972l0.003-0.001c-0.051 0.018-0.105 0.027-0.162 0.027s-0.112-0.010-0.159-0.026c-5.208-2.401-8.686 2.189-12.993 3.354-3.372 0.883-6.603 2.419-9.887 3.708h-41.17zM278.435 411.919c7.91-4.414 12.394-7.415 17.319-9.534 49.662-20.832 100.472-37.958 153.453-48.726 21.009-4.237 39.775-13.064 50.739-33.72 8.121-15.182 3.602-24.893-13.541-24.010-11.546 0.53-23.074 3.178-34.427 5.826-31.602 7.239-64.95 7.062-94.61 22.598-6.656 3.354-13.488 6.532-20.479 9.181-11.511 4.414-22.986 10.77-34.886 11.829-46.943 4.767-74.89 33.367-93.568 73.089-8.881 18.713-0.335 42.724 16.189 53.846 28.283 18.89 56.724 37.605 84.759 56.848 23.038 16.028 49.393 30.108 77.358 40.959l2.582 0.881c28.035 10.593 55.576 22.421 84.742 34.25 5.032-10.417-2.631-25.246 10.364-33.367 0.918-0.53-2.048-11.299-5.65-14.653-17.093-16.256-35.236-32.688-53.772-48.675l-1.946-1.641c-7.327-6.356-15.924-11.123-29.183-20.302 11.776-1.236 17.054-2.119 22.333-2.119 36.863 0 73.725 0.53 110.553 0 42.423-0.353 84.848-2.119 127.253-2.472 37.534-0.353 75.067 1.059 112.601 0.706 32.979-0.353-12.57-1.059 2.295 0 23.057 1.942 51.48-14.3 61.103-35.309 3.708-8.121-1.024-19.949-11.529-24.716-7.486-3.531-16.101-5.826-24.275-6.179-62.85-1.412 15.483-3.354-47.384-3.354-98.070 0-196.141 1.412-294.212 1.942-40.199 0.353-80.416-1.059-120.58 0-7.345 0-14.529 7.415-26.517 14.123-6.162-3.884-15.112-9.534-27.082-17.301z" />
<glyph unicode="&#xe921;" glyph-name="next" d="M578.528 959.98c-2.613-0.459-5.191-1.059-7.821-1.236-7.292-0.547-14.617-0.83-21.909-1.359-1.73-0.124-3.443-1.201-5.12-1.112-4.449 0.194-8.722-0.265-13.099-1.236-4.008-0.971-8.333-0.424-12.482-0.883-6.303-0.671-12.553-1.642-18.855-2.436-4.326-0.53-8.775-0.53-13.011-1.448-6.515-1.359-12.887-3.425-19.367-4.908-5.491-1.289-11.105-2.030-16.577-3.354-4.061-0.936-8.015-2.507-12.006-3.796-7.645-2.56-15.271-5.173-22.951-7.645-5.085-1.66-10.222-3.213-15.359-4.661-6.921-1.977-13.911-3.708-20.797-5.738l-4.843-1.284c-7.242-2.231-14.433-4.58-16.766-5.601-5.12-1.783-10.116-3.814-15.147-5.826-7.751-3.072-15.43-6.215-23.198-9.216-3.037-1.148-6.25-1.818-9.216-3.090-2.966-1.289-5.703-3.107-8.598-4.59-1.907-0.953-3.902-1.695-5.879-2.525-0.141-0.035-0.53 0.212-0.565 0.159-2.278-3.831-6.974-3.584-10.152-6.020-2.878-2.154-6.356-3.478-9.446-5.367-3.761-2.313-7.398-4.802-11.105-7.186-2.895-1.871-5.985-3.46-8.651-5.579-3.019-2.436-5.667-5.279-8.474-7.962-0.883-0.83-1.836-1.624-2.595-2.525-3.602-4.255-7.274-8.439-10.593-12.852l0.014 0.021c-0.671-0.985-1.063-2.174-1.063-3.455 0-0.555 0.074-1.094 0.202-1.562 1.236-3.213-0.177-4.626-2.578-6.179-5.42-3.531-10.805-7.062-15.959-10.946-3.814-2.807-7.239-6.197-10.823-9.34-4.184-3.725-8.139-7.733-12.588-11.105-3.319-2.472-6.197-4.996-7.998-8.828-0.83-1.871-2.684-3.196-4.061-4.767-1.801-2.101-3.743-4.096-5.367-6.285-1.465-2.013-2.436-4.326-3.831-6.356l-0.153-0.23c-1.519-2.158-3.154-4.23-4.826-6.126-3.090-3.637-6.197-7.221-9.463-10.699-3.849-4.078-7.927-7.962-11.794-12.006-1.024-1.13-1.571-2.648-2.489-3.884-2.048-2.772-3.972-5.667-6.374-8.068-3.884-3.919-8.086-7.468-12.182-11.158-5.791-5.226-11.794-10.275-17.389-15.712-4.378-4.273-8.298-9.039-12.359-13.629-2.948-3.302-6.073-6.532-8.633-10.116-2.984-4.184-5.402-8.81-8.139-13.187-1.518-2.472-3.213-4.873-4.767-7.309-2.613-4.078-6.126-7.962-7.486-12.465-1.571-5.173-5.35-8.916-7.009-13.947-1.624-4.943-4.202-9.516-6.285-14.3-0.565-1.324-0.83-2.772-1.254-4.131-0.141-0.494-0.124-1.201-0.459-1.448-4.308-3.39-4.078-8.792-5.791-13.293-1.183-3.107-2.083-6.321-3.125-9.428-1.254-3.831-2.842-7.715-2.772-12.006 0.053-2.154-1.483-4.29-1.713-6.532-0.3-3.054-0.035-6.197-0.071-9.304-0.053-3.778-0.177-7.539-0.265-11.299 0-0.459-0.088-1.112 0.141-1.289 2.083-1.43 1.112-3.213 0.618-4.943-1.642-5.862-3.196-11.811-4.979-17.637-1.271-4.167-3.143-8.227-4.273-12.429-0.847-3.266-0.883-6.691-1.412-10.046-0.247-1.571-0.918-3.107-1.165-4.696-0.282-1.942-0.23-3.919-0.477-5.862-0.177-1.624-0.53-3.231-0.883-4.838-0.918-3.919-2.525-7.927-1.112-11.9 1.095-3.143 0.3-5.773-0.6-8.669-0.583-1.818-1.077-4.131-0.441-5.773 1.006-2.578 0.177-4.838 0-7.239-0.265-3.637-0.247-7.309-0.3-10.946-0.053-2.56-0.018-5.12-0.053-7.68-0.053-5.614-0.035-11.229-0.194-16.842-0.071-2.242-0.494-4.467-0.742-6.691l0.007 0.075c-0.071-0.616-0.108-1.242-0.108-1.876 0-0.223 0.005-0.446 0.012-0.635 0.053-0.706 0.406-1.448 0.353-2.154-0.353-3.884-0.9-7.715-1.183-11.564-0.335-4.537-0.6-9.092-0.636-13.611-0.018-2.242 0.618-4.467 0.865-6.709 0.53-4.749-0.918-9.446 1.377-14.37 1.889-4.078 2.013-9.075 2.366-13.699 0.335-4.343 1.907-8.316 2.807-12.447 0.706-3.249 0.494-6.674 2.189-9.781l-0.773 1.495c2.931-5.209 5.71-10.516 9.107-17.684 0.989-2.101 0.9-4.661 1.73-6.903 1.148-3.090 2.931-5.932 4.008-9.075 2.383-6.833 4.484-13.717 6.691-20.603 1.501-4.626 2.895-9.304 4.467-13.929 1.218-3.584 2.631-7.062 3.972-10.611 0.018-0.071 0.088-0.212 0.177-0.247 5.173-4.237 3.778-11.158 6.444-16.595 3.443-7.062 7.574-13.876 10.134-21.362 0.512-1.571 0.441-3.39 1.183-4.82 2.878-5.667 6.003-11.246 9.004-16.86 0.724-1.359 1.342-2.754 2.013-4.167 1.077-2.278 1.748-4.961 3.354-6.78 3.178-3.637 6.426-7.097 7.433-12.111 0.071-0.353 0.194-0.936 0.459-1.059 4.025-2.189 5.014-6.197 6.691-10.081 1.695-3.919 4.82-7.256 7.539-10.646 1.607-2.030 4.078-3.478 5.314-5.614 1.942-3.39 3.249-7.115 4.661-10.734 0.53-1.324 0.3-2.984 0.936-4.22 4.22-8.351 8.457-16.595 13.576-24.487 5.455-8.386 11.953-15.606 18.625-22.845 3.99-4.378 8.157-8.669 11.37-13.593 2.984-4.537 7.804-7.468 9.869-12.712 0.53-1.324 2.895-1.783 3.849-3.019 4.396-5.985 11.264-8.633 16.701-13.134 7.998-6.55 17.142-11.264 25.405-17.389 4.237-3.178 9.463-4.908 14.088-7.592 5.561-3.178 10.982-6.638 16.454-9.993 1.412-0.865 2.772-1.854 4.22-2.595 5.226-2.684 10.417-5.42 15.712-7.892 4.131-1.907 8.474-3.39 12.659-5.155 1.783-0.777 3.372-2.030 5.138-2.895 3.708-1.854 7.503-3.478 11.158-5.367 2.401-1.201 4.502-3.054 6.956-4.096l-12.685 4.788c9.677-4.111 19.393-8.145 42.132-16.757 6.674-2.684 13.276-5.667 20.126-7.804 6.638-2.119 13.699-2.895 20.267-5.155 3.584-1.218 7.027-1.13 10.558-1.589 4.537-0.53 8.986-2.030 13.541-2.56 5.544-0.653 11.176-0.865 16.771-1.148 3.99-0.212 7.998-0.159 11.97-0.406l1.932-0.108c6.549-0.457 13.068-1.017 16.958-1.463 7.309-0.706 14.582-1.818 21.891-2.278 5.279-0.335 10.593 0.424 15.889 0.247 8.033-0.212 16.048-0.83 24.045-1.236l-1.787 0.061c5.286-0.225 10.584-0.403 16.969-0.555l-0.111 0.003c0.769-0.029 1.542-0.043 2.318-0.043s1.549 0.014 2.207 0.040c3.672 0.194 7.327 0.53 10.999 0.618 3.478 0.088 6.974-0.335 10.434-0.177 4.714 0.265 9.375 0.883 14.070 1.324 0.406 0.053 0.83 0.141 1.254 0.141l20.62 1.059c5.473 0.3 10.982 0.335 16.401 1.042 3.090 0.371 6.020 1.801 9.057 2.684 1.077 0.282 2.278 0.194 3.407 0.318 3.407 0.459 6.815 0.247 9.781 2.984 1.536 1.448 4.467 1.359 6.744 2.013 4.078 1.254 8.545 1.324 11.988 4.378 0.441 0.424 1.483 0.053 2.136 0.3 4.061 1.571 25.175 5.155 34.886 23.163 1.377 0.371 1.289 13.223 3.178 13.541l0.159 0.918c1.359 0.371 2.648 0.706 3.919 1.148 0.777 0.247 1.483 0.918 2.26 0.953 6.073 0.459 11.034 3.919 16.577 5.862 3.919 1.359 8.015 2.225 11.935 3.637 2.631 0.953 5.014 2.578 7.574 3.637 2.842 1.236 5.826 2.101 8.651 3.337 4.096 1.818 8.104 3.814 12.094 5.791 1.942 0.953 4.167 1.695 5.65 3.196 3.425 3.284 7.945 4.484 11.829 6.886 7.362 4.537 14.37 9.657 21.538 14.529 4.555 3.107 9.852 5.491 13.558 9.41 3.249 3.513 7.574 4.431 10.982 7.115 2.295 1.854 4.131 4.626 6.709 5.703 3.054 1.271 4.59 3.655 6.656 5.773 1.554 1.66 3.619 2.772 5.402 4.22 3.266 2.595 6.215 5.773 9.834 7.715 3.919 2.101 5.297 6.568 9.304 8.51 3.443 1.642 6.515 4.096 9.64 6.409 4.361 3.178 8.739 6.303 12.852 9.816 3.354 2.86 6.285 6.285 9.534 9.287 2.172 2.083 4.626 3.814 6.833 5.826 1.871 1.748 2.366 3.761 0.124 6.744 1.483 0.124 2.825-0.159 3.354 0.371 0.918 0.865 2.154 2.931 1.818 3.39-2.648 3.372 0.247 5.402 1.624 7.68 1.783 2.966 3.814 5.826 5.667 8.757 0.177 0.282 0.177 0.989-0.018 1.183-1.571 1.818 0.053 2.489 1.165 2.86l0.067 0.018c2.696 0.858 4.867 2.891 5.936 5.561l0.052 0.123c0.988 2.11 2.333 4.019 3.956 5.65 3.178 3.302 3.566 8.386 6.497 11.282 3.143 3.090 3.884 7.186 6.409 10.364 0.847 1.077 0.971 2.719 1.448 4.078 0.212 0.583 0.335 1.501 0.689 1.624 2.931 0.989 2.842 4.449 4.943 6.073 0.141 0.124 0.282 0.441 0.23 0.565-1.624 3.478 2.066 3.602 3.425 5.367-0.742 1.783-1.024 3.196 1.165 4.714 2.595 1.783 2.631 3.443 1.677 7.15 4.714 0.777 3.919 5.526 5.756 8.422 1.271 2.013 2.066 4.343 2.86 6.603 0.353 1.042-0.141 2.472 0.388 3.354 0.953 1.607 2.401 2.966 3.549 4.502l-0.025-0.032c0.92 1.151 1.685 2.432 2.302 3.916 3.955 1.801 5.844 4.943 4.873 8.916 1.907 0.618 3.919 1.024 3.39 4.008-0.159 0.847 0.918 2.013 1.554 2.966 1.554 2.383 4.255 4.096 3.778 7.68-0.141 1.042 1.342 2.278 1.942 3.513 0.918 1.942 3.284 3.249 2.242 6.073-0.194 0.53 1.536 1.607 2.066 2.613 1.165 2.225 4.467 3.125 3.531 6.886-0.388 1.483 1.695 3.549 2.472 5.455 2.083 4.908 3.955 9.94 6.144 14.865 1.006 2.26 1.13 4.326-0.424 6.85 3.955-0.335 3.831 1.818 3.531 4.343-0.106 0.777 0.565 1.695 0.936 2.719l-0.83 0.618c0.071 1.818-0.106 3.178 0.282 4.378 0.335 1.077-0.9 3.178 1.607 3.143 0 0.989 0.282 2.154-0.071 2.966-0.759 1.818-1.801 3.39 1.589 3.143 0.353-0.035 1.165 1.536 1.201 2.366 0.018 1.059-0.794 2.101-0.794 3.178 0.035 2.172 0.371 4.378 0.618 6.938l2.542 1.448-2.154 4.943c3.231 1.942 3.372 2.895 1.236 5.826-0.477 0.653-0.742 1.448-1.148 2.278 0.512 0.371 0.9 0.689 1.342 0.989l2.472 1.483c-0.883 0.124-1.783 0.247-2.648 0.459-0.494 0.124-0.953 0.318-2.119 0.777l4.061 1.66c0.141 1.359-0.194 3.143 0.494 3.761 2.313 2.066 1.924 4.573 1.995 7.133 0.071 2.525 0.724 4.961 0.865 7.45 0.035 0.883-0.689 1.801-1.218 3.178 1.66 1.766 3.001 4.237 0.424 7.38-0.265 0.335 0.636 2.030 1.342 2.684 1.324 1.289 1.589 2.366 0.177 3.637-1.112 0.989-1.165 1.854-0.212 3.143 1.483 1.977 1.818 4.167-0.459 6.109 1.448 0.918 2.825 1.766 4.449 2.825l-1.66 5.65 1.412 0.282c-0.071 2.313-4.061 5.085 1.412 6.321v0.618h-0.477l-2.295 5.95c1.483 1.695 0.106 3.708-0.353 5.862-0.847 4.043-2.472 8.545-0.441 12.147 1.536 2.666 0.847 4.908 0.883 7.256 0.124 6.374-1.536 12.606-1.818 18.978-0.194 4.202-0.689 8.369-1.254 12.535-0.406 3.054-2.225 6.409-1.465 9.057 1.077 3.831-1.695 6.179-1.942 9.446-0.23 3.302-2.825 6.409-3.902 9.71-1.607 4.873-3.284 9.781-4.043 14.829-0.812 5.438-0.53 11.017-0.883 16.56-0.106 1.73-0.971 3.425-1.148 5.155-0.194 2.101-0.053 4.255-0.053 6.691 2.225 1.977 1.554 9.34-0.989 12.518 0 2.189-0.212 3.672 0.088 5.085 0.177 0.989 1.042 1.854 1.766 3.054-0.194 0.194-0.759 0.9-1.324 1.642l0.706 0.124c-0.106 1.448-0.053 2.931-0.353 4.378-0.9 4.343-1.818 8.722-2.931 13.046-2.013 7.821-3.884 15.694-6.391 23.374-2.313 7.115-5.049 14.176-8.227 20.973-2.295 4.89-3.354 9.887-3.796 15.182-0.071 0.812-1.024 1.589-1.148 2.472-0.353 2.225-0.494 4.52-0.689 6.815-0.053 0.653 0.159 1.359-0.053 1.907-1.377 3.354-2.966 6.638-4.237 10.063-0.724 1.889-0.794 4.078-1.43 6.020-1.818 5.72-3.655 11.405-5.773 17.019-1.254 3.302-3.107 6.409-4.52 9.622-2.648 5.985-4.961 12.111-7.768 17.972-3.602 7.556-7.733 14.865-11.264 22.456-2.401 5.173-3.884 10.787-6.321 15.942-1.165 2.525-3.672 4.378-5.367 6.656-0.636 0.865-0.689 2.119-1.006 3.178-0.335 1.165-0.459 2.472-1.095 3.46-1.836 2.86-3.884 5.526-5.826 8.351-0.3 0.406-0.706 0.865-0.724 1.359-0.335 4.908-3.866 6.974-7.662 8.969-1.624 0.83-2.701 2.136-1.536 4.202 1.059 1.871 0.388 2.525-1.448 3.761-2.489 1.695-4.061 4.714-6.144 7.062-3.125 3.549-6.091 7.362-9.657 10.417-1.766 1.483-4.749 1.518-7.38 2.842l3.619 1.165c0.53 2.26-1.624 3.125-3.178 4.449-1.13 0.918-2.101 2.030-3.16 3.054-0.706 0.706-1.289 1.66-2.154 2.119-2.684 1.359-5.42 2.684-8.227 3.796-0.794 0.318-1.854-0.088-3.619-0.212l2.948 3.672c-1.306 3.107-7.768 5.791-11.476 4.061-0.424 2.348-5.35 2.189-3.090 6.303-2.754 2.86-5.508 3.725-7.892 2.366-1.024 1.571-1.766 3.46-4.308 3.266-0.777-0.053-1.73 1.059-2.472 1.766-1.112 1.024-2.101 2.154-3.478 2.966-0.477 0.883 0.547 1.783-1.907 2.825-3.019 1.236-6.762 1.977-9.004 5.438-1.148 1.783-4.149 2.366-6.268 3.513-0.865 0.494-1.924 0.918-2.383 1.695-1.518 2.436-2.701 2.613-4.502 0.424-2.207 1.359-4.237 3.337-6.603 3.919-4.484 1.112-8.369 4.838-13.488 3.46-0.247-0.071-0.618 0.088-0.847 0.3-3.46 2.472-7.574 2.136-11.458 2.842-0.847 0.124-1.607 0.742-2.401 1.165-0.424 0.194-0.83 0.689-1.218 0.653-3.725-0.371-5.297 0.706-5.809 3.478l-4.202 3.090 0.53 0.9c0.689 0.177 1.359 0.3 2.066 0.424l0.177 0.777c-0.865 0.177-1.713 0.371-2.578 0.494-0.282 0.053-0.6-0.124-0.071 0-4.061 3.761-7.698 7.15-11.388 10.54-0.282 0.282-0.742 0.583-1.095 0.53-3.143-0.494-5.032 1.871-8.033 3.849l0.883-3.761c-1.042 0.247-2.383 0.088-2.948 0.706-2.931 3.090-6.391 5.067-10.311 6.603-1.766 0.706-3.814 2.278-4.431 3.919-0.971 2.631-2.878 3.549-4.996 4.22-3.972 1.271-8.051 2.242-12.094 3.302-0.3 0.035-0.794 0.035-0.883 0.212-2.136 4.749-7.362 3.178-10.858 5.332-3.866 2.383-8.333 3.884-12.623 5.473-3.337 1.289-6.78 2.242-10.222 3.231-4.096 1.201-8.227 2.313-12.359 3.46-4.643 1.289-9.287 2.648-13.947 3.972l0.003-0.001c-0.051 0.018-0.105 0.027-0.162 0.027s-0.112-0.010-0.159-0.026c-5.208-2.401-8.686 2.189-12.993 3.354-3.372 0.883-6.603 2.419-9.887 3.708h-41.17zM228.422 436.065c33.879 3.531 15.165 3.708 49.291 5.12 12.341 0.53 24.716 0.177 37.057 0.706 23.304 1.236 46.749 1.942 69.911 4.59 22.227 2.472 44.171 7.415 66.31 10.593 9.781 1.412 19.773 1.059 29.66 1.942 15.006 1.059 30.419 0.706 44.877 4.237 33.191 7.945 66.698 7.415 100.189 6.003 14.529-0.53 28.424-0.53 41.664 5.473 11.953 5.12 22.245 7.768 29.395-7.239 1.448-3.001 7.133-3.884 10.399-6.356 30.366-22.951 39.652-21.362 63.133 11.299-1.059 1.236-1.871 3.178-3.196 3.531-34.073 11.829-67.969 24.187-102.396 34.956-36.016 11.299-72.56 21.009-108.858 31.249-15.942 4.59-24.716 17.301-32.273 30.189-6.426 11.123 0.335 20.832 13.329 18.89 18.184-2.472 36.545-5.826 53.988-11.476 41.788-13.593 86.507-16.418 126.265-37.958 19.596-10.77 42.317-16.065 64.086-22.068 13.664-3.708 25.052-8.651 32.167-21.538 2.754-5.12 7.309-9.357 11.511-13.417 26.835-25.952 15.924-59.143-9.498-78.386-26.59-20.234-56.805-40.473-88.208-58.908l-4.337-2.354c-42.653-24.716-87.973-43.43-139.665-49.256-1.766 4.59-3.302 9.887-5.914 14.829-12.747 23.48-13.77 24.716 6.85 39.899 19.508 14.3 41.205 25.599 61.915 38.311 7.592 4.59 15.094 9.534 22.633 14.123-0.371 1.942-0.759 3.708-1.13 5.473-23.745 0.353-48.091 4.237-71.094 0.177-43.2-7.415-87.355-5.473-130.008-13.947-40.517-7.945-81.705-3.708-122.363-13.064-29.554-6.886-61.897-1.236-92.968-1.942-21.68-0.53-7.998-2.825-29.695-3.708-26.782-1.059-0.742-3.354-27.382-1.766-27.559 1.766-21.221 19.42-16.418 45.195 36.174 6.003 16.807 13.064 50.774 16.595z" />
<glyph unicode="&#xe922;" glyph-name="heart" d="M512 9.143c-0.314-0.011-0.682-0.017-1.052-0.017-9.741 0-18.494 4.232-24.52 10.957l-0.027 0.031-354.743 343.771-18.286 14.629-29.257 36.571-40.229 54.857c-10.876 19.696-20.796 42.694-28.484 66.69l-0.774 2.796c-9.264 23.375-14.635 50.457-14.635 78.794 0 0.585 0.002 1.169 0.007 1.753l-0.001-0.089c-0.219 4.043-0.343 8.775-0.343 13.537 0 71.351 27.991 136.165 73.59 184.059l-0.104-0.11c47.849 43.525 111.722 70.176 181.821 70.176 6.799 0 13.54-0.251 20.213-0.743l-0.891 0.053c24.852-0.086 48.739-4.093 71.114-11.434l-1.629 0.463 69.486-32.914 54.857-40.229 43.886-40.229 43.886 40.229 54.857 40.229 69.486 32.914c20.747 6.879 44.633 10.886 69.444 10.971h0.042c5.782 0.44 12.523 0.691 19.322 0.691 70.098 0 133.971-26.651 182.040-70.373l-0.219 0.197c45.496-47.784 73.486-112.598 73.486-183.949 0-4.761-0.125-9.494-0.371-14.194l0.027 0.657c0-84.114-43.886-171.886-131.657-256l-354.743-343.771c-6.054-6.757-14.807-10.988-24.548-10.988-0.37 0-0.739 0.006-1.106 0.018l0.053-0.001z" />
<glyph unicode="&#xe923;" glyph-name="home" d="M877.714 382.171v-303.543c0.13-1.158 0.204-2.501 0.204-3.862 0-20.198-16.374-36.571-36.571-36.571-1.36 0-2.703 0.074-4.025 0.219l0.163-0.015h-245.029v241.371h-160.914v-241.371h-245.029c-0.481-0.021-1.045-0.032-1.612-0.032-10.716 0-20.453 4.19-27.663 11.021l0.018-0.017c-6.814 7.192-11.004 16.929-11.004 27.645 0 0.567 0.012 1.131 0.035 1.692l-0.003-0.080v303.543l365.714 303.543 365.714-299.886zM1020.343 426.057l-40.229-47.543-14.629-7.314c-5.962 0-11.257 2.853-14.595 7.268l-0.033 0.046-438.857 365.714-438.857-365.714-14.629-7.314-14.629 7.314-40.229 47.543c-2.367 3.45-3.78 7.716-3.78 12.312 0 0.816 0.045 1.622 0.131 2.414l-0.009-0.098c0 5.962 2.853 11.257 7.268 14.595l0.046 0.033 457.143 380.343c12.093 9.185 27.401 14.714 44 14.714 1.246 0 2.485-0.031 3.716-0.093l-0.173 0.007c1.058 0.055 2.297 0.086 3.543 0.086 16.599 0 31.906-5.529 44.181-14.846l-0.181 0.132 157.257-131.657v124.343c0 7.314 0 10.971 3.657 14.629l14.629 7.314h120.686c5.962 0 11.257-2.853 14.595-7.268l0.033-0.046c7.314-3.657 7.314-7.314 7.314-14.629v-259.657l138.971-113.371c4.461-3.371 7.314-8.667 7.314-14.629v0c0.078-0.695 0.123-1.5 0.123-2.316 0-4.596-1.413-8.862-3.828-12.387l0.049 0.075z" />
<glyph unicode="&#xe924;" glyph-name="image" d="M896 777.143h-768v-640h768zM1024 905.143v0-896h-1024v896zM833.829 202.971h-640v128l190.171 318.171 263.314-318.171 186.514 128v-256zM640 619.886c9.176 45.803 49.072 79.828 96.914 79.828s87.738-34.025 96.809-79.197l0.106-0.631c1.163-5.687 1.829-12.223 1.829-18.915 0-54.534-44.209-98.743-98.743-98.743s-98.743 44.209-98.743 98.743c0 6.692 0.666 13.228 1.934 19.546l-0.106-0.631z" />
<glyph unicode="&#xe925;" glyph-name="info" d="M504.686 960c-279.584-4.15-504.634-231.767-504.634-511.947 0-282.77 229.23-512 512-512s512 229.23 512 512c0 2.553-0.019 5.102-0.056 7.646l0.004-0.385c-4.092 279.629-231.732 504.739-511.949 504.739-2.59 0-5.175-0.019-7.756-0.058l0.39 0.005zM563.2 788.114c51.2 0 65.829-29.257 65.829-62.171 0-0.095 0.001-0.207 0.001-0.319 0-46.455-37.659-84.114-84.114-84.114-2.575 0-5.123 0.116-7.639 0.342l0.324-0.024c-51.2 0-73.143 25.6-73.143 65.829 3.536 45.553 41.369 81.177 87.523 81.177 3.956 0 7.85-0.262 11.667-0.769l-0.447 0.049zM427.886 126.171c-36.571 0-62.171 21.943-36.571 117.029l40.229 168.229c7.314 29.257 10.971 40.229 0 40.229-31.927-8.248-59.955-20.8-85.216-37.244l1.102 0.673-18.286 29.257c87.771 69.486 186.514 113.371 230.4 113.371s40.229-43.886 21.943-106.057l-43.886-179.2c-10.971-29.257-7.314-40.229 3.657-40.229 30.185 5.917 56.369 20.175 76.823 40.251l-0.023-0.023 21.943-29.257c-84.114-84.114-175.543-117.029-212.114-117.029z" />
<glyph unicode="&#xe926;" glyph-name="key" d="M705.829 960c-1.094 0.014-2.385 0.021-3.678 0.021-175.721 0-318.171-142.45-318.171-318.171 0-1.293 0.008-2.585 0.023-3.874l-0.002 0.196c0-18.286 3.657-36.571 3.657-58.514l-387.657-387.657v-193.829c1.993-34.748 30.657-62.172 65.727-62.172 0.036 0 0.071 0 0.107 0h62.165v62.171h128v128h128v128h128l84.114 84.114c32.703-11.491 70.41-18.178 109.664-18.286h0.050c162.384 17.892 287.57 154.327 287.57 320s-125.186 302.107-286.124 319.87l-1.446 0.13zM800.914 638.171c-5.687-1.163-12.223-1.829-18.915-1.829-54.534 0-98.743 44.209-98.743 98.743s44.209 98.743 98.743 98.743c6.692 0 13.228-0.666 19.546-1.934l-0.631 0.106c45.803-9.176 79.828-49.072 79.828-96.914s-34.025-87.738-79.197-96.809l-0.631-0.106z" />
<glyph unicode="&#xe927;" glyph-name="link" d="M377.6 153.6l-50.88-50.56c-20.524-20.363-48.793-32.947-80-32.947s-59.476 12.584-80.007 32.954l0.007-0.007c-20.276 20.027-32.834 47.827-32.834 78.56s12.558 58.533 32.823 78.549l0.011 0.011 186.88 185.6c38.72 38.4 111.68 96 164.8 42.24 11.402-11.603 27.261-18.794 44.8-18.794 34.68 0 62.794 28.114 62.794 62.794 0 17.141-6.868 32.678-18.002 44.009l0.009-0.009c-90.24 89.6-224 72.96-340.16-42.24l-186.88-185.6c-42.981-42.583-69.593-101.624-69.593-166.88s26.612-124.298 69.576-166.862l0.018-0.018c43.034-42.516 102.21-68.778 167.52-68.778s124.486 26.262 167.544 68.802l-0.024-0.023 49.28 49.6c11.631 11.389 18.842 27.252 18.842 44.8 0 34.618-28.064 62.682-62.682 62.682-17.070 0-32.547-6.824-43.851-17.892l0.011 0.011zM944.32 874.24c-96 96-232.64 101.44-322.56 12.48l-64-64c-12.27-11.375-19.924-27.579-19.924-45.572 0-34.286 27.794-62.080 62.080-62.080 18.47 0 35.057 8.066 46.428 20.868l0.055 0.064 64 64c46.4 46.080 107.52 26.88 147.2-12.48 20.276-20.027 32.834-47.827 32.834-78.56s-12.558-58.533-32.823-78.549l-0.011-0.011-199.36-197.76c-91.2-90.56-134.080-48-152.32-29.76-11.519 11.479-27.411 18.576-44.96 18.576-35.178 0-63.696-28.518-63.696-63.696 0-17.629 7.162-33.585 18.735-45.118l0.002-0.002c35.156-37.438 84.642-61.063 139.655-62.077l0.185-0.003c75.060 4.971 141.206 39.472 187.589 91.871l0.251 0.289 199.36 197.76c42.981 42.583 69.593 101.624 69.593 166.88s-26.612 124.298-69.576 166.862l-0.018 0.018z" />
<glyph unicode="&#xe928;" glyph-name="lock" d="M833.829 510.171h-65.829v193.829c0 141.385-114.615 256-256 256s-256-114.615-256-256v0-193.829h-62.171c-1.093 0.069-2.371 0.108-3.657 0.108-34.336 0-62.171-27.835-62.171-62.171 0-0.038 0-0.076 0-0.114v0.006-449.829c1.993-34.748 30.657-62.172 65.727-62.172 0.036 0 0.071 0 0.107 0h639.994c33.556 1.874 60.298 28.616 62.164 62l0.008 0.172v449.829c0 34.336-27.835 62.171-62.171 62.171v0zM512 126.171c-0.032 0-0.070 0-0.108 0-34.336 0-62.171 27.835-62.171 62.171 0 1.287 0.039 2.564 0.116 3.831l-0.008-0.174c-0.078 1.13-0.122 2.45-0.122 3.779 0 32.317 26.198 58.514 58.514 58.514 1.33 0 2.649-0.044 3.957-0.132l-0.177 0.009c1.093 0.069 2.371 0.108 3.657 0.108 34.336 0 62.171-27.835 62.171-62.171 0-0.038 0-0.076 0-0.114v0.006c0-36.356-29.472-65.829-65.829-65.829v0zM640 510.171h-256v193.829c0 70.692 57.308 128 128 128s128-57.308 128-128v0z" />
<glyph unicode="&#xe929;" glyph-name="loop" d="M128 638.171h640v-190.171l256 256-256 256v-193.829h-768v-384h128zM896 254.171h-640v193.829l-256-256 256-256v190.171h768v384h-128z" />
<glyph unicode="&#xe92a;" glyph-name="megaphone" d="M917.943 616.229c-87.771 212.114-234.057 369.371-307.2 340.114s73.143-292.571-537.6-541.257c-51.2-21.943-65.829-109.714-43.886-160.914s95.086-102.4 146.286-80.457l43.886 14.629c36.571-51.2 76.8-21.943 91.429-51.2s54.857-124.343 65.829-153.6 40.229-54.857 62.171-47.543l117.029 47.543c15.829 2.577 27.765 16.149 27.765 32.509 0 6.989-2.178 13.469-5.893 18.798l0.071-0.107c-7.314 18.286-43.886 25.6-54.857 47.543s-43.886 98.743-51.2 124.343 14.629 58.514 54.857 62.171c277.943 29.257 329.143-142.629 424.229-102.4s58.514 241.371-32.914 449.829zM888.686 276.114c-18.286-7.314-128 80.457-197.486 245.029s-62.171 310.857-43.886 318.171 124.343-98.743 193.829-263.314 62.171-292.571 47.543-299.886z" />
<glyph unicode="&#xe92b;" glyph-name="minus-1" d="M1023.392 426.019c-2.841-15.757-7.727-23.938-13.711-26.779-4.091-1.932-8.333-4.129-12.196-3.977-35.604 1.023-71.207 2.954-106.811 3.788-18.067 0.455-36.172-0.644-54.277-1.326-20.643-0.758-41.361-2.273-61.928-2.916-18.787-0.606-37.611-0.227-56.436-0.833-23.483-0.758-47.042-2.121-70.526-3.182-30.793-1.288-61.663-3.182-92.418-3.598-19.090-0.265-37.876 2.954-57.117 2.273-32.574-1.098-65.45-5.795-97.872-5.568-19.052 0.152-38.899-6.553-57.004 3.409-1.629 0.947-3.522 0.53-5.303 0.568-22.65 0.758-45.073 4.394-67.95 1.629-31.551-3.863-61.473 5.795-92.115 9.658-15.681 1.97-30.831 8.106-46.323 11.704-15.151 3.485-30.301 6.136-45.376 9.166-1.439 0.303-2.992-0.114-4.28 0.758-18.294 12.499-38.558 9.166-57.686 15.529-8.636 2.879-15.794 10.757-21.855 23.748-1.397 3.304-2.208 7.146-2.208 11.177 0 0.598 0.018 1.192 0.053 1.782l-0.004-0.081c0.988 5.151 3.072 9.698 6.005 13.564l-0.058-0.080c2.765 3.106 5.909 3.636 8.787 4.469 44.239 11.742 87.494 11.136 130.749 10.227 49.732-1.023 99.652 0.455 149.46 0.189 14.014-0.114 27.839-2.462 41.853-3.75 2.462-0.189 4.962-0.644 7.537-0.53 34.013 1.78 68.177 4.469 102.114 5.189 36.513 0.795 72.836-0.72 109.311-0.303 22.802 0.227 45.679 2.386 68.48 3.257 35.49 1.326 70.904 2.197 106.357 3.409 23.142 0.795 46.323 1.894 69.503 2.765 24.241 0.909 48.785 4.469 72.647 1.894 34.619-3.712 68.821-11.817 103.175-18.143 7.007-1.288 14.128-2.576 21.173-4.432 11.477-3.030 20.264-14.469 23.862-42.838 0.72-5.757 1.97-10.757 2.992-16.097v-0.076c-0.303-1.894-0.492-3.75-0.606-5.606z" />
<glyph unicode="&#xe92c;" glyph-name="mobile" d="M702.171 960h-394.971c-58.574 0-106.057-47.483-106.057-106.057v0-811.886c0-58.574 47.483-106.057 106.057-106.057v0h394.971c58.574 0 106.057 47.483 106.057 106.057v0 811.886c0 58.574-47.483 106.057-106.057 106.057v0zM504.686-23.771c-40.229 0-73.143 25.6-73.143 54.857s32.914 51.2 73.143 51.2 73.143-21.943 73.143-51.2-32.914-54.857-73.143-54.857zM724.114 133.486h-438.857v691.2h438.857z" />
<glyph unicode="&#xe92d;" glyph-name="mouse" d="M199.68 448c0 64 0 128 0 192 0.863 173.779 141.937 314.32 315.836 314.32 124.532 0 232.231-72.073 283.659-176.782l0.825-1.858c20.11-39.546 31.923-86.224 32-135.655v-0.025c0-128 2.24-256 0-384 0.023-1.382 0.035-3.012 0.035-4.645 0-124.16-74.276-230.971-180.818-278.424l-1.937-0.771c-38.752-19.725-84.51-31.281-132.967-31.281-43.973 0-85.723 9.517-123.303 26.602l1.87-0.761c-114.195 48.171-193.119 158.731-194.239 287.858l-0.001 0.142c-1.28 65.28-0.96 129.28-0.96 193.28zM263.68 448c0-64 0-128 0-192-0.004-0.532-0.006-1.161-0.006-1.79 0-12.006 0.816-23.822 2.396-35.395l-0.15 1.345c22.027-119.202 125.169-208.296 249.119-208.296 136.635 0 247.984 108.261 252.947 243.683l0.013 0.453q0 192 0 384c0.102 2.681 0.16 5.83 0.16 8.993 0 139.618-113.182 252.8-252.8 252.8s-252.8-113.182-252.8-252.8c0-3.162 0.058-6.311 0.173-9.446l-0.013 0.453q0-96 0-190.080zM577.6 565.76c-5.088-30.691-31.436-53.806-63.183-53.806-0.85 0-1.696 0.017-2.538 0.049l0.121-0.004c-32.691 2.17-58.554 28.588-59.836 61.318l-0.004 0.122c0 22.080 0 44.16 0 66.56 5.042 30.742 31.415 53.912 63.2 53.912s58.158-23.17 63.15-53.542l0.050-0.371c0-10.88 0-21.44 0-32z" />
<glyph unicode="&#xe92e;" glyph-name="tooltip" d="M997.219 707.677s-32.851 157.275-175.189 212.447c-66.905 25.469-190.184 38.117-310.143 39.262-118.929-1.088-242.151-13.793-309.055-39.262-142.223-55.23-175.131-212.447-175.131-212.447-21.291-89.226-27.7-179.481-27.7-260.179 0-79.667 6.41-169.98 27.643-259.149 0 0 32.909-157.218 175.246-212.447 66.905-25.469 189.039-38.232 309.055-39.262 120.016 1.088 242.151 12.705 309.055 39.262 142.28 55.23 175.246 212.447 175.246 212.447 21.233 89.168 28.673 179.424 27.643 259.091 0.973 80.697-5.38 171.011-26.613 260.236zM562.824 131.002h-106.109v95.578h106.224v-95.578zM564.999 365.026v-53.512h-109.028v153.383h53.799c45.328 0 82.129 36.572 82.129 81.557s-36.744 81.557-82.129 81.557c-45.271 0-82.129-36.629-82.129-81.614h-109.028c0 104.049 84.933 189.897 191.157 189.897 104.736 0 191.157-84.418 191.157-189.897 0-85.791-56.66-158.991-135.927-181.427z" />
<glyph unicode="&#xe92f;" glyph-name="pdf-1" d="M707.84 512c0.29-2.193 0.455-4.73 0.455-7.305 0-32.519-26.361-58.88-58.88-58.88-1.963 0-3.904 0.096-5.817 0.284l0.243-0.019c-2.588-0.233-5.599-0.365-8.64-0.365s-6.052 0.133-9.026 0.392l0.386-0.027v124.8c5.342 1.055 11.484 1.659 17.768 1.659 1.179 0 2.353-0.021 3.521-0.063l-0.169 0.005c1.843 0.221 3.977 0.348 6.141 0.348 30.044 0 54.4-24.356 54.4-54.4 0-2.265-0.138-4.498-0.407-6.691l0.026 0.263zM501.44 571.84c-2.687 0.288-5.804 0.452-8.96 0.452s-6.273-0.164-9.344-0.485l0.384 0.032v-57.28c2.26-0.341 4.867-0.535 7.52-0.535s5.26 0.194 7.809 0.57l-0.289-0.035c23.36 0 37.44 11.52 37.44 32s-13.12 29.12-34.88 29.12zM922.56 644.16v-268.16h-552.32v268.16zM567.36 544c0.011 0.384 0.017 0.836 0.017 1.289 0 14.637-6.423 27.773-16.603 36.745l-0.054 0.046c-12.371 8.747-27.766 13.982-44.385 13.982-2.061 0-4.103-0.080-6.123-0.238l0.267 0.017c-1.221 0.020-2.661 0.031-4.104 0.031-15.389 0-30.476-1.292-45.159-3.772l1.584 0.221v-168.64h32v64c2.305-0.278 4.974-0.436 7.68-0.436s5.375 0.158 7.998 0.467l-0.318-0.030c1.266-0.075 2.747-0.118 4.238-0.118 19.122 0 36.59 7.077 49.93 18.754l-0.088-0.075c8.199 9.174 13.21 21.348 13.21 34.693 0 1.079-0.033 2.151-0.097 3.213l0.007-0.146zM741.12 512c0.131 1.679 0.206 3.636 0.206 5.61 0 23.359-10.472 44.271-26.977 58.3l-0.109 0.091c-16.927 12.592-38.243 20.159-61.326 20.159-2.856 0-5.685-0.116-8.482-0.343l0.368 0.024c-0.199 0-0.435 0.001-0.671 0.001-17.263 0-34.226-1.28-50.801-3.75l1.872 0.229v-168.32c12.059-1.43 26.027-2.246 40.185-2.246 0.723 0 1.445 0.002 2.166 0.006l-0.111-0.001c2.412-0.182 5.225-0.286 8.062-0.286 26.24 0 50.403 8.897 69.635 23.838l-0.257-0.192c16.657 16.086 27 38.616 27 63.563 0 1.617-0.043 3.224-0.129 4.82l0.010-0.222zM800 522.88v47.36h67.2v25.6h-99.2v-171.2h32v72.96h64v25.28zM762.24 155.2h-154.24v-142.72l-2.24-1.92h-466.56v883.52h623.040v-216.96h66.56v250.88c0 17.673-14.327 32-32 32v0h-690.88c-17.673 0-32-14.327-32-32v0-950.4c0-17.673 14.327-32 32-32v0h512c0.156-0.003 0.34-0.004 0.525-0.004 8.468 0 16.168 3.289 21.892 8.66l-0.017-0.016 178.24 160c6.877 5.905 11.206 14.608 11.206 24.323 0 0.224-0.002 0.447-0.007 0.67l0.001-0.033v207.040h-67.52z" />
<glyph unicode="&#xe930;" glyph-name="pdf-2" d="M693.44-41.28c-12.548 0-22.72 10.172-22.72 22.72v0 272.64c0 12.548 10.172 22.72 22.72 22.72v0h272.64c12.548 0 22.72-10.172 22.72-22.72s-10.172-22.72-22.72-22.72h-249.92v-249.92c0-12.548-10.172-22.72-22.72-22.72v0zM693.44-64h-469.44c-25.096 0-45.44 20.344-45.44 45.44v0 272.64c0 25.096 20.344 45.44 45.44 45.44s45.44-20.344 45.44-45.44v0-227.2h405.12l246.080 246.080v596.16h-696.64c-25.096 0-45.44 20.344-45.44 45.44s20.344 45.44 45.44 45.44v0h742.4c25.096 0 45.44-20.344 45.44-45.44v0-660.48c-0.075-12.518-5.199-23.824-13.437-31.997l-272.643-272.643c-8.176-8.241-19.482-13.366-31.986-13.44h-0.014zM144 527.36h-64v-114.56h-59.84v341.12h100.48c1.042 0.010 2.274 0.016 3.507 0.016 19.308 0 38.288-1.402 56.844-4.109l-2.111 0.253c16.237-1.657 31.007-6.678 44.023-14.355l-0.503 0.275c11.913-7.834 21.246-18.709 27.013-31.535l0.187-0.465c5.809-14.787 9.176-31.911 9.176-49.822 0-2.736-0.079-5.454-0.234-8.151l0.017 0.373c0.057-1.465 0.090-3.184 0.090-4.911 0-18.916-3.917-36.917-10.985-53.237l0.335 0.868c-6.633-14.449-15.936-26.62-27.373-36.358l-0.147-0.122c-10.384-8.767-22.804-15.487-36.425-19.352l-0.695-0.168c-11.757-3.512-25.283-5.605-39.275-5.759l-0.085-0.001zM130.56 704h-51.84v-124.8h56.64c2.083-0.224 4.5-0.352 6.947-0.352 16.319 0 31.311 5.682 43.106 15.175l-0.133-0.104c9.384 11.698 15.060 26.722 15.060 43.071 0 2.412-0.124 4.795-0.365 7.144l0.024-0.295c0.037 1.002 0.059 2.178 0.059 3.359 0 8.82-1.189 17.362-3.417 25.474l0.158-0.674c-2.12 7.504-6.132 13.899-11.493 18.855l-0.027 0.025c-5.896 5.101-13.142 8.802-21.128 10.504l-0.312 0.056c-8.405 1.689-18.068 2.655-27.956 2.655-1.872 0-3.737-0.035-5.592-0.103l0.268 0.008zM434.56 412.8h-128v341.12h128c0.78 0.012 1.701 0.018 2.624 0.018 23.652 0 46.288-4.349 67.152-12.291l-1.296 0.433c20.825-8.008 38.622-19.635 53.458-34.258l-0.018 0.018c14.79-14.763 26.533-32.573 34.209-52.409l0.351-1.031c7.717-20.157 12.186-43.473 12.186-67.833 0-1.128-0.010-2.253-0.029-3.377l0.002 0.169c0.020-1.045 0.032-2.278 0.032-3.513 0-24.365-4.471-47.685-12.638-69.185l0.446 1.339c-8.027-20.867-19.77-38.677-34.558-53.438l-0.002-0.002c-14.809-14.62-32.609-26.25-52.395-33.885l-1.045-0.355c-19.3-7.317-41.615-11.554-64.918-11.554-1.252 0-2.502 0.012-3.748 0.037l0.187-0.003zM434.56 700.8h-69.76v-232h69.76c1.674-0.101 3.632-0.158 5.603-0.158 28.904 0 54.921 12.362 73.052 32.087l0.065 0.071c16.889 21.103 27.103 48.186 27.103 77.656 0 2.626-0.081 5.233-0.241 7.819l0.018-0.354c0.032 1.052 0.050 2.29 0.050 3.532 0 30.089-10.648 57.691-28.382 79.243l0.172-0.216c-18.132 19.215-43.772 31.178-72.206 31.178-1.841 0-3.671-0.050-5.487-0.149l0.253 0.011zM869.12 699.52h-152v-81.28h117.44v-54.72h-117.44v-150.72h-57.6v341.12h209.6z" />
<glyph unicode="&#xe931;" glyph-name="pdf-3" d="M803.52 960h-647.040v-140.8h-104.96v-371.2h104.96v-512h824v857.92zM608 649.28v-32h-75.84v-76.8h-36.48v182.080h123.84v-32h-87.36v-41.28zM465.28 630.4c0.021-0.825 0.032-1.797 0.032-2.771 0-12.723-2.001-24.978-5.706-36.469l0.234 0.84c-4.064-12.51-10.654-23.23-19.217-32.017l0.017 0.017c-7.055-6.509-15.64-11.471-25.147-14.285l-0.453-0.115c-8.747-2.461-18.792-3.876-29.167-3.876-0.996 0-1.989 0.013-2.979 0.039l0.146-0.003h-69.44v180.8h66.56c1.651 0.076 3.587 0.12 5.533 0.12 10.758 0 21.206-1.327 31.189-3.827l-0.882 0.187c10.625-3.313 19.68-9.061 26.855-16.613l0.025-0.027c7.585-8.060 13.497-17.789 17.119-28.569l0.161-0.551c3.686-11.738 5.809-25.236 5.809-39.229 0-1.284-0.018-2.563-0.053-3.838l0.004 0.188zM182.4 610.24v-68.16h-37.12v180.48h58.56c2.158 0.077 4.694 0.121 7.24 0.121 12.702 0 25.149-1.092 37.252-3.186l-1.292 0.185c10.61-3.034 19.499-9.227 25.834-17.483l0.086-0.117c6.627-9.19 10.599-20.677 10.599-33.092 0-0.741-0.014-1.479-0.042-2.213l0.003 0.106c0.011-0.432 0.017-0.94 0.017-1.449 0-9.606-2.251-18.685-6.255-26.741l0.157 0.35c-3.673-7.275-8.873-13.294-15.213-17.82l-0.147-0.1c-5.39-3.744-11.703-6.617-18.501-8.243l-0.379-0.077c-9.907-1.664-21.32-2.615-32.956-2.615-1.689 0-3.374 0.020-5.053 0.060l0.249-0.005zM920.64-3.52h-704v451.52h501.76v371.2h-501.76v80.32h563.2l140.8-131.52v-771.52zM413.12 681.6c-4.529 4.275-10.329 7.248-16.776 8.295l-0.184 0.025c-7.32 1.285-15.749 2.019-24.35 2.019-1.903 0-3.797-0.036-5.682-0.107l0.272 0.008h-16.32v-119.68h26.88c1.098-0.042 2.387-0.066 3.682-0.066 6.504 0 12.866 0.606 19.033 1.766l-0.635-0.099c5.704 1.442 10.655 4.108 14.76 7.714l-0.040-0.034c4.487 4.801 7.824 10.733 9.538 17.32l0.062 0.28c2.259 8.718 3.556 18.726 3.556 29.038 0 1.042-0.013 2.080-0.040 3.116l0.003-0.153c0.075 1.465 0.117 3.181 0.117 4.907 0 9.64-1.328 18.969-3.811 27.816l0.173-0.723c-2.239 6.88-5.863 12.775-10.57 17.61l0.010-0.010zM240 682.56c-3.992 4.489-9.605 7.461-15.912 7.994l-0.088 0.006c-3.929 0.336-8.502 0.527-13.12 0.527s-9.191-0.191-13.712-0.567l0.592 0.040h-16v-50.56h19.52c1.617-0.102 3.505-0.16 5.408-0.16 8.317 0 16.375 1.109 24.033 3.188l-0.641-0.148c4.804 1.725 8.756 4.85 11.468 8.878l0.052 0.082c2.609 3.784 4.167 8.467 4.167 13.514 0 0.199-0.002 0.397-0.007 0.595l0.001-0.029c0.028 0.418 0.044 0.907 0.044 1.399 0 5.76-2.206 11.005-5.819 14.937l0.014-0.016z" />
<glyph unicode="&#xe932;" glyph-name="pencil" d="M744.69 866.807l93.059 93.163 186.222-186.222-93.163-93.163zM0.009 122.231v-186.222h186.014l651.517 651.517-186.014 186.222z" />
<glyph unicode="&#xe933;" glyph-name="person-1" d="M516.16 358.080c165.476 0.161 299.558 134.342 299.558 299.84 0 165.597-134.243 299.84-299.84 299.84s-299.84-134.243-299.84-299.84c0-82.869 33.618-157.885 87.959-212.157l0.003-0.003c54.149-54.172 128.968-87.68 211.613-87.68 0.192 0 0.384 0 0.577 0.001h-0.030zM516.16-61.76c211.2 0 360 59.84 360 120 0 120-141.12 240-360 240-224 0-360-120-360-240 0-60.16 134.72-120 360-120z" />
<glyph unicode="&#xe934;" glyph-name="person-2" d="M515.657 458.971c113.371 0 204.8 113.371 204.8 252.343s-29.257 248.686-204.8 248.686-204.8-113.371-204.8-248.686 91.429-252.343 204.8-252.343zM903.314 85.943c-3.657 241.371-32.914 310.857-274.286 354.743-28.227-27.194-66.679-43.945-109.042-43.945-1.522 0-3.040 0.022-4.551 0.065l0.222-0.005c-0.439-0.004-0.958-0.007-1.477-0.007-43.261 0-82.622 16.692-111.997 43.987l0.102-0.094c-237.714-43.886-270.629-109.714-274.286-347.429v-40.229s54.857-117.029 387.657-117.029 387.657 117.029 387.657 117.029v32.914z" />
<glyph unicode="&#xe935;" glyph-name="phone" d="M437.12 378.88c88.96-102.72 192-202.56 240-161.6 67.52 58.24 110.080 110.080 240.32-11.2s18.56-187.84-46.72-244.16c-75.2-64-332.16 20.48-571.84 297.92s-288 544-211.84 608c64 56.32 147.2 157.12 248.32 10.88s43.84-180.8-23.68-238.72c-47.040-40.96 36.48-160 125.44-261.12z" />
<glyph unicode="&#xe936;" glyph-name="arrow3" horiz-adv-x="1008" d="M83.118 436.438c51.218 5.335 22.942 5.64 74.503 7.774 18.635 0.762 37.347 0.266 55.982 1.067 35.251 1.867 70.654 2.935 105.676 6.936 33.536 3.735 66.69 11.204 100.15 16.006 14.786 2.134 29.916 1.6 44.816 2.935 22.675 1.6 45.959 1.067 67.833 6.402 50.151 12.004 100.759 11.204 151.368 9.070 21.951-0.8 42.949-0.8 62.994 8.27 18.025 7.736 33.574 11.738 44.396-10.937 2.172-4.573 10.747-5.869 15.701-9.604 45.921-34.679 59.907-32.278 95.386 17.073-1.6 1.867-2.82 4.802-4.84 5.335-51.447 17.873-102.703 36.546-154.683 52.819-54.457 17.073-109.639 31.745-164.516 47.217-24.085 6.936-37.347 26.143-48.779 45.616-9.68 16.768 0.534 31.478 20.198 28.544 27.438-3.735 55.22-8.803 81.553-17.34 63.146-20.579 130.713-24.809 190.773-57.354 29.61-16.272 63.947-24.275 96.872-33.345 20.579-5.602 37.804-13.071 48.551-32.545 4.192-7.736 11.052-14.139 17.416-20.274 40.548-39.252 24.047-89.365-14.367-118.442-44.511-33.612-91.537-64.556-139.859-92.604-64.404-37.347-132.885-65.585-211.008-74.388-2.667 6.936-4.954 14.939-8.918 22.408-19.283 35.441-20.807 37.347 10.327 60.288 29.496 21.608 62.27 38.68 93.557 57.887 11.471 6.936 22.827 14.405 34.222 21.341l-1.715 8.27c-35.899 0.534-72.673 6.402-107.467 0.266-65.242-11.204-131.971-8.27-196.412-21.074-61.203-12.004-123.472-5.602-184.904-19.74-44.625-10.404-93.519-1.906-140.469-2.935-32.774-0.8-12.081-4.268-44.854-5.602-40.472-1.6-1.143-5.068-41.386-2.667-41.653 2.667-32.049 29.344-24.771 68.291 54.61 9.070 25.343 19.74 76.675 25.075z" />
<glyph unicode="&#xe937;" glyph-name="pin" d="M516.16 956.48c-0.096 0-0.209 0-0.323 0-175.044 0-317.030-141.537-317.757-316.411v-0.070c0-303.36 317.76-699.2 317.76-699.2s318.080 394.56 318.080 699.2c-0.727 174.943-142.713 316.48-317.757 316.48-0.001 0-0.002 0-0.003 0v0zM516.16 463.040c-94.728 0-171.52 76.792-171.52 171.52s76.792 171.52 171.52 171.52c94.728 0 171.52-76.792 171.52-171.52v0c-0.182-94.59-76.904-171.2-171.52-171.2 0 0 0 0 0 0v0z" />
<glyph unicode="&#xe938;" glyph-name="play" d="M117.611 959.993c17.554-0.498 33.762-8.017 38.326-22.616 56.466-44.382 130.193-70.012 190.959-107.84 73.435-45.729 147.162-90.842 219.718-137.887 72.996-47.308 146.869-97.454 226.096-134.054 56.992-26.331 119.572-40.374 170.566-78.291 40.14-29.841 0.995-97.864-39.701-67.583l-2.75 1.989c-1.814-8.981-6.729-17.496-15.623-24.107-163.984-121.327-355.937-196.634-534.549-293.357l-203.48-129.314c-9.157-7.022-18.227-14.248-27.18-21.591-10.298-8.485-21.884-10.65-32.475-8.631-25.922-3.832-55.587 8.134-54.915 35.956 1.551 63.75 14.043 127.033 15.243 190.841 1.463 82.007-12.873 163.106-17.729 244.879-10.035 171.678-9.655 344.469 14.131 515.386 3.218 22.995 26.126 35.108 48.39 36.132l0.585 0.029 1.58 0.059h0.966z" />
<glyph unicode="&#xe939;" glyph-name="plus-1" d="M1020.693 424.78c0.795-5.678 2.196-10.675 3.294-15.975v-0.114c-0.302-1.892-0.454-3.748-0.53-5.603-2.536-15.823-7.306-24.038-13.249-26.991-4.050-2.044-8.215-4.278-12.113-4.24-35.584 0.416-71.168 1.742-106.827 1.968-17.981 0.152-36.076-1.25-54.171-2.272-20.594-1.136-41.262-2.952-61.855-4.013-18.776-0.908-37.553-0.908-56.329-1.78-23.47-1.212-46.94-2.952-70.448-4.467-25.514-1.514-51.067-3.407-76.581-4.543 0.378-6.511 0.682-13.135 0.832-19.684 0.758-33.653 1.022-67.193 1.666-100.771 0.378-21.956 1.25-43.95 1.742-65.906 0.492-23.016 4.164-46.486 0.606-68.82-5.224-32.404-15.672-63.938-23.962-95.849-1.742-6.511-3.407-13.098-5.83-19.609-3.861-10.523-17.678-17.83-51.672-18.662-6.89-0.19-12.871-0.984-19.23-1.438h-0.114c-1.721 0.374-4.003 0.747-6.314 1.022l-0.385 0.038c-18.738 4.088-28.391 9.426-31.647 15.407-2.158 4.013-4.694 8.139-4.467 11.849 2.044 33.539 5.148 67.004 6.927 100.581 0.984 16.997 0.114 34.183-0.34 51.369-0.454 19.534-1.704 39.256-2.006 58.751-0.34 17.83 0.53 35.546 0.228 53.376-0.378 22.258-1.476 44.632-2.12 66.928l-0.984 26.498c-11.167-0.908-22.334-1.628-33.464-1.704-19.041-0.19-38.764-7.23-56.973 2.46-1.704 0.87-3.558 0.378-5.375 0.378-22.638 0.416-45.124 3.634-67.912 0.454-31.42-4.391-61.515 4.77-92.216 8.063-15.71 1.704-30.965 7.571-46.524 10.903-15.142 3.218-30.36 5.603-45.502 8.328-1.438 0.302-2.915-0.114-4.278 0.758-18.473 12.151-38.65 8.479-57.919 14.461-8.669 2.726-15.937 10.448-22.258 23.356-1.504 3.388-2.38 7.339-2.38 11.497 0 0.483 0.012 0.964 0.035 1.442l-0.003-0.067c0.874 5.147 2.874 9.713 5.739 13.602l-0.062-0.088c2.726 3.18 5.868 3.786 8.707 4.618 43.988 12.53 87.256 12.719 130.525 12.53 49.666-0.19 99.559 2.158 149.301 2.764 14.007 0.152 27.899-1.968 41.868-3.028 2.498-0.152 5.035-0.53 7.571-0.378 31.269 2.158 62.575 5.11 93.805 6.587l0.076-2.044c-0.606 30.89-5.489 62.348-4.467 92.972 0.606 17.981-6.927 37.325 5.413 53.489 1.136 1.514 0.682 3.331 0.758 5.035 1.438 21.312 6.284 42.17 3.482 63.975-3.899 30.209 8.328 57.615 13.628 86.196 2.726 14.688 10.373 28.391 14.991 42.738 4.543 14.007 8.063 28.051 12.001 42.019l0.378 2.764c0.118 0.471 0.342 0.879 0.646 1.214l-0.002-0.002c15.331 16.164 11.811 35.621 19.836 53.111 3.634 7.949 13.135 14.007 28.808 18.549 2.981 0.771 6.405 1.213 9.931 1.213 1.971 0 3.91-0.138 5.807-0.405l-0.219 0.025c6.322-1.438 12.985-4.429 15.899-6.738 3.596-2.915 4.24-5.905 5.11-8.707 12.985-42.852 11.281-83.698 9.237-124.467-2.385-46.864-1.78-94.184-3.218-141.2-0.378-13.249-3.558-26.12-5.375-39.18-0.378-2.347-0.946-4.656-0.832-7.117 1.325-32.291 3.786-64.808 3.861-96.909l-0.606-33.615 5.073 0.19c15.18 1.060 30.398 2.46 45.578 3.294 35.433 1.968 70.789 3.407 106.184 5.3 23.13 1.174 46.259 2.688 69.426 3.937 24.228 1.362 48.682 5.3 72.53 3.18 34.713-3.104 68.972-10.599 103.421-16.316 7.041-1.136 14.195-2.347 21.236-4.088 11.545-2.839 20.518-14.082 24.606-42.398z" />
<glyph unicode="&#xe93a;" glyph-name="print-1" d="M36.16 91.2h201.92v-119.040c-0.001-0.095-0.001-0.207-0.001-0.32 0-19.794 16.046-35.84 35.84-35.84 0.001 0 0.001 0 0.002 0h476.16c0.096-0.001 0.208-0.001 0.321-0.001 19.794 0 35.84 16.046 35.84 35.84 0 0.113-0.001 0.226-0.002 0.339v-0.017 119.040h201.92c0.004 0 0.008 0 0.013 0 19.794 0 35.84 16.046 35.84 35.84 0 0.338-0.005 0.674-0.014 1.009l0.001-0.049v640c0.001 0.096 0.001 0.208 0.001 0.321 0 19.794-16.046 35.84-35.84 35.84-0.113 0-0.226-0.001-0.339-0.002h-201.903v119.68c0.001 0.095 0.001 0.207 0.001 0.32 0 19.794-16.046 35.84-35.84 35.84-0.001 0-0.001 0-0.002 0h-476.16c0 0-0.001 0-0.001 0-19.794 0-35.84-16.046-35.84-35.84 0-0.113 0.001-0.225 0.002-0.337v0.017-119.040h-201.92c-0.099 0.001-0.216 0.002-0.333 0.002-19.794 0-35.84-16.046-35.84-35.84 0-0.338 0.005-0.675 0.014-1.011l-0.001 0.049v-640c0-0.002 0-0.004 0-0.006 0-20.099 16.113-36.435 36.126-36.794h0.034zM713.92 8.32h-403.84v297.92h403.84zM310.080 887.68h403.84v-82.88h-403.84zM72.32 732.8h879.36v-569.6h-165.76v143.040h64c19.971 0 36.16 16.189 36.16 36.16s-16.189 36.16-36.16 36.16h-675.52c-19.971 0-36.16-16.189-36.16-36.16s16.189-36.16 36.16-36.16h64v-143.040h-166.080zM704 546.56h92.8c19.971 0 36.16 16.189 36.16 36.16s-16.189 36.16-36.16 36.16v0h-92.8c-19.971 0-36.16-16.189-36.16-36.16s16.189-36.16 36.16-36.16v0z" />
<glyph unicode="&#xe93b;" glyph-name="print-2" d="M716.8 227.2h-409.6c-9.72 0-17.6-7.88-17.6-17.6s7.88-17.6 17.6-17.6h409.6c9.455 0 17.12 7.665 17.12 17.12s-7.665 17.12-17.12 17.12v0zM716.8 141.76h-409.6c-9.455 0-17.12-7.665-17.12-17.12s7.665-17.12 17.12-17.12h409.6c9.455 0 17.12 7.665 17.12 17.12s-7.665 17.12-17.12 17.12v0zM870.4 669.76v290.24h-716.8v-290.24h-153.6v-580.16h153.6v-153.6h716.8v153.6h153.6v580.16zM187.84 925.76h648.32v-256h-648.32zM153.6 635.84h836.16v-272.96h-955.52v272.96zM102.4 123.84h-68.16v204.8h119.36v-204.8h-16.96zM836.48-29.76h-648.64v358.4h648.32v-358.4zM887.68 123.84v0h-17.28v204.8h119.36v-204.8h-68.16z" />
<glyph unicode="&#xe93c;" glyph-name="pushpin" d="M460.8 506.514v277.943l-7.314 10.971c-3.371 4.461-8.667 7.314-14.629 7.314v0l-10.971-7.314-7.314-10.971v-277.943l7.314-14.629h25.6c3.657 3.941 6.249 8.92 7.286 14.447l0.028 0.181zM874.057 290.743c0.13-1.158 0.204-2.501 0.204-3.862 0-20.198-16.374-36.571-36.571-36.571-1.36 0-2.703 0.074-4.025 0.219l0.163-0.015h-263.314l-32.914-296.229c0.078-0.695 0.123-1.5 0.123-2.316 0-4.596-1.413-8.862-3.828-12.387l0.049 0.075h-14.629c-10.099 0-18.286 8.187-18.286 18.286v0l-47.543 296.229h-248.686c-0.481-0.021-1.045-0.032-1.612-0.032-10.716 0-20.453 4.19-27.663 11.021l0.018-0.017c-6.814 7.192-11.004 16.929-11.004 27.645 0 0.567 0.012 1.131 0.035 1.692l-0.003-0.080c-0.026 1.21-0.040 2.637-0.040 4.067 0 50.089 17.982 95.978 47.842 131.564l-0.259-0.317c24.503 35.669 64.072 59.459 109.322 62.153l0.393 0.019v310.857c-0.769-0.029-1.672-0.045-2.578-0.045-20.477 0-38.989 8.415-52.266 21.976l-0.012 0.013c-12.954 14.604-21.131 33.704-21.938 54.693l-0.005 0.164c0.231 22.419 8.495 42.863 22.045 58.636l-0.102-0.121c13.29 13.573 31.802 21.988 52.279 21.988 0.907 0 1.809-0.016 2.708-0.049l-0.13 0.004h394.971c0.769 0.029 1.672 0.045 2.578 0.045 20.477 0 38.989-8.415 52.266-21.976l0.012-0.013c13.448-15.651 21.712-36.096 21.942-58.465v-0.049c-0.812-21.153-8.989-40.253-22.022-54.948l0.079 0.091c-13.29-13.573-31.802-21.988-52.279-21.988-0.907 0-1.809 0.016-2.708 0.049l0.13-0.004v-314.514c45.642-2.712 85.211-26.502 109.401-61.689l0.314-0.483c29.602-35.27 47.583-81.159 47.583-131.248 0-1.43-0.015-2.856-0.044-4.279l0.003 0.213z" />
<glyph unicode="&#xe93d;" glyph-name="quote-set1-end" d="M734.516 802.454c-17.25 0-31.034-3.151-41.353-6.262-20.677-9.334-31.034-24.97-31.034-56.2 0-190.5-41.353-321.648-179.196-477.805-6.853-9.374-10.319-24.97-10.319-34.343 0-18.747 17.25-34.382 44.819-49.978l130.912-74.948c13.784-6.262 27.569-9.374 37.927-9.374 24.142 0 34.461 9.374 55.137 31.231 158.52 168.641 282.579 362.252 282.579 615.214 0 40.566-17.25 62.463-65.495 62.463h-223.976zM261.909 802.454c-17.25 0-31.034-3.151-41.353-6.262-20.677-9.334-31.034-24.97-31.034-56.2 0-190.5-41.353-321.648-179.196-477.805-6.853-9.374-10.319-24.97-10.319-34.343 0-18.747 17.25-34.382 44.819-49.978l130.912-74.948c13.784-6.262 27.569-9.374 37.927-9.374 24.142 0 34.461 9.374 55.137 31.231 158.52 168.641 282.579 362.252 282.579 615.214 0 40.566-17.25 62.463-65.495 62.463h-223.976z" />
<glyph unicode="&#xe93e;" glyph-name="quote-set1-start" d="M289.486 93.548c17.25 0 31.034 3.151 41.353 6.262 20.677 9.334 31.034 24.97 31.034 56.2 0 190.5 41.353 321.648 179.196 477.805 6.853 9.374 10.319 24.97 10.319 34.343 0 18.747-17.25 34.382-44.819 49.978l-130.912 74.948c-13.784 6.262-27.569 9.374-37.927 9.374-24.142 0-34.461-9.374-55.137-31.231-158.52-168.641-282.579-362.252-282.579-615.214 0-40.566 17.25-62.463 65.495-62.463h223.976zM762.092 93.548c17.25 0 31.034 3.151 41.353 6.262 20.677 9.334 31.034 24.97 31.034 56.2 0 190.5 41.353 321.648 179.196 477.805 6.853 9.374 10.319 24.97 10.319 34.343 0 18.747-17.25 34.382-44.819 49.978l-130.912 74.948c-13.784 6.262-27.569 9.374-37.927 9.374-24.142 0-34.461-9.374-55.137-31.231-158.52-168.641-282.579-362.252-282.579-615.214 0-40.566 17.25-62.463 65.495-62.463h223.976z" />
<glyph unicode="&#xe941;" glyph-name="search" d="M1005.76 58.24l-216 215.68c50.734 69.947 81.156 157.501 81.156 252.16 0 238.764-193.556 432.32-432.32 432.32-0.069 0-0.138 0-0.207 0h0.011c-238.979-0.182-432.64-193.955-432.64-432.96v0c-0.001-0.249-0.001-0.543-0.001-0.837 0-238.764 193.556-432.32 432.32-432.32 94.659 0 182.213 30.423 253.417 82.024l-1.257-0.867 215.36-215.040c12.43-11.085 28.913-17.858 46.978-17.858 39.058 0 70.72 31.662 70.72 70.72 0 18.065-6.774 34.549-17.92 47.048l0.061-0.070zM232.32 320c-52.721 52.749-85.328 125.607-85.328 206.080 0 161.002 130.518 291.52 291.52 291.52s291.52-130.518 291.52-291.52c0-161.002-130.518-291.52-291.52-291.52-0.039 0-0.078 0-0.118 0h0.006c-0.203-0.001-0.444-0.001-0.685-0.001-80.278 0-152.927 32.664-205.381 85.427l-0.014 0.014z" />
<glyph unicode="&#xe942;" glyph-name="share" d="M558.544 807.787v-159.458h279.493c51.291 0 92.854-39.794 92.854-88.758v-534.784c0-48.964-41.563-88.758-92.854-88.758h-652.073c-51.291 0-92.854 39.794-92.854 88.758v534.784c0 49.010 41.563 88.758 92.854 88.758h279.493v159.551l-52.594-50.267c-18.012-17.221-47.242-17.221-65.533 0.326-18.198 17.36-18.059 45.659-0.326 62.647l132.323 126.505c8.937 8.564 20.665 12.846 32.441 12.892l0.372-0.186c11.822 0 23.551-4.236 32.441-12.706l132.183-126.505c18.012-17.221 18.012-45.147-0.233-62.647-18.198-17.407-47.8-17.267-65.58-0.279l-52.408 50.127zM465.457 559.246h-279.261v-534.179h651.608v534.179h-279.261v-178.168c0-24.528-20.665-44.449-46.543-44.449-25.692 0-46.543 19.967-46.543 44.449v178.215zM325.826 648.33v-89.037h372.348v89.037h-372.348zM465.457 648.33h93.087v-89.037h-93.087v89.037z" />
<glyph unicode="&#xe944;" glyph-name="speaker_notes" d="M819.2 652.8v102.4h-409.6v-102.4zM819.2 499.2v102.4h-409.6v-102.4zM665.6 345.6v102.4h-256v-102.4zM307.2 652.8v102.4h-102.4v-102.4zM307.2 499.2v102.4h-102.4v-102.4zM307.2 345.6v102.4h-102.4v-102.4zM921.6 960c1.112 0.045 2.417 0.070 3.728 0.070 54.534 0 98.743-44.209 98.743-98.743 0-1.311-0.026-2.616-0.076-3.914l0.006 0.187v-614.4c0-56.554-45.846-102.4-102.4-102.4h-716.8l-204.8-204.8v921.6c-0.045 1.112-0.070 2.417-0.070 3.728 0 54.534 44.209 98.743 98.743 98.743 1.311 0 2.616-0.026 3.914-0.076l-0.187 0.006z" />
<glyph unicode="&#xe945;" glyph-name="star" d="M512 960l138.971-391.314h373.029l-303.543-230.4 109.714-402.286-318.171 241.371-318.171-241.371 109.714 402.286-303.543 230.4h373.029z" />
</font>
</defs>
</svg>
